<?xml version="1.0" standalone="no"?>
<!DOCTYPE svg PUBLIC "-//W3C//DTD SVG 1.1//EN" "http://www.w3.org/Graphics/SVG/1.1/DTD/svg11.dtd" >
<svg xmlns="http://www.w3.org/2000/svg" xmlns:xlink="http://www.w3.org/1999/xlink" version="1.1">
<metadata>
Created by FontForge 20170731 at Tue Oct 26 16:51:58 1999
 By Aleksey,,,
(c) 1991 by Bigelow &#38; Holmes Inc. Pat. Des. 289,422. All Rights Reserved. (c) 1990-1991 Type Solutions, Inc. All Rights Reserved.
</metadata>
<defs>
<font id="LucidaBright-Demi" horiz-adv-x="1277" >
  <font-face 
    font-family="Lucida Bright"
    font-weight="600"
    font-stretch="normal"
    units-per-em="2048"
    panose-1="2 4 7 2 6 5 5 2 3 4"
    ascent="1638"
    descent="-410"
    x-height="1098"
    cap-height="1480"
    bbox="-600 -420 2298 1900"
    underline-thickness="100"
    underline-position="-350"
    unicode-range="U+0020-F002"
  />
<missing-glyph horiz-adv-x="748" 
d="M68 0v1365h544v-1365h-544zM136 68h408v1229h-408v-1229z" />
    <glyph glyph-name=".notdef" horiz-adv-x="748" 
d="M68 0v1365h544v-1365h-544zM136 68h408v1229h-408v-1229z" />
    <glyph glyph-name="glyph1" horiz-adv-x="0" 
 />
    <glyph glyph-name="glyph2" horiz-adv-x="0" 
 />
    <glyph glyph-name="space" unicode=" " horiz-adv-x="638" 
 />
    <glyph glyph-name="exclam" unicode="!" horiz-adv-x="543" 
d="M123 0v247h296v-247h-296zM225 419l-102 765v296h296v-296l-102 -765h-92z" />
    <glyph glyph-name="quotedbl" unicode="&#x22;" horiz-adv-x="945" 
d="M201 987l-99 592h296l-99 -592h-98zM645 987l-99 592h296l-98 -592h-99z" />
    <glyph glyph-name="numbersign" unicode="#" horiz-adv-x="1357" 
d="M219 0l112 432h-291l24 123h298l90 370h-317l27 124h321l110 431h128l-111 -431h289l109 431h128l-111 -431h290l-24 -124h-296l-90 -370h314l-24 -123h-320l-111 -432h-128l111 432h-288l-111 -432h-129zM489 555h289l91 370h-288z" />
    <glyph glyph-name="dollar" unicode="$" 
d="M592 -160v160q-279 24 -419 74v284h136l1 -19q3 -41 3 -61q0 -153 279 -175v545l-53 38q-197 143 -261 227.5t-64 203.5q0 156 111.5 257t297.5 106v161h93v-161q226 -22 344 -67v-278h-136l-1 19q-8 138 -45.5 180.5t-161.5 56.5v-514l112 -74q161 -106 219.5 -189
t58.5 -204q0 -174 -114.5 -285.5t-306.5 -124.5v-160h-93zM685 109q170 48 170 235q0 78 -31 123t-139 125v-483zM617 935v449q-153 -65 -153 -221q0 -53 38.5 -110t114.5 -118z" />
    <glyph glyph-name="percent" unicode="%" horiz-adv-x="1554" 
d="M45 -37l1269 1554h196l-1279 -1554h-186zM389 737q-177 0 -265.5 93t-88.5 278q0 186 88.5 279t265.5 93t265.5 -93t88.5 -279q0 -185 -88.5 -278t-265.5 -93zM389 832q65 0 97.5 69t32.5 207q0 139 -32.5 208t-97.5 69t-98 -69t-33 -208q0 -138 33 -207t98 -69zM1167 0
q-177 0 -265.5 93t-88.5 278q0 186 88.5 278.5t265.5 92.5t265.5 -92.5t88.5 -278.5q0 -185 -88.5 -278t-265.5 -93zM1167 95q66 0 98.5 69t32.5 206q0 139 -32.5 208.5t-98.5 69.5q-65 0 -98 -69.5t-33 -208.5q0 -137 33 -206t98 -69z" />
    <glyph glyph-name="ampersand" unicode="&#x26;" horiz-adv-x="1567" 
d="M1068 0l-77 84q-171 -121 -378 -121q-235 0 -395 137t-160 339q0 309 381 449q-116 187 -116 307q0 140 112 231t282 91q181 0 289.5 -83.5t108.5 -222.5q0 -240 -342 -355q195 -319 359 -517q71 121 71 272q0 79 -19 97.5t-106 24.5l-19 1v93h481v-93l-18 -1
q-95 -5 -108.5 -16.5t-22.5 -97.5q-18 -159 -197 -353q104 -128 134 -146t151 -26l18 -1v-93h-429zM935 158q-223 253 -447 650q-148 -120 -148 -307q0 -175 109 -289.5t276 -114.5q107 0 210 61zM727 934q143 128 143 290q0 101 -32 151t-97 50q-68 0 -102.5 -43
t-34.5 -129q0 -124 123 -319z" />
    <glyph glyph-name="quotesingle" unicode="'" horiz-adv-x="518" 
d="M210 962l-111 617h321l-111 -617h-99z" />
    <glyph glyph-name="parenleft" unicode="(" horiz-adv-x="669" 
d="M596 -216v-92q-243 131 -388.5 390.5t-145.5 560.5q0 296 147 557.5t387 390.5v-92q-127 -115 -182.5 -315.5t-55.5 -542.5q0 -340 55.5 -541t182.5 -316z" />
    <glyph glyph-name="parenright" unicode=")" horiz-adv-x="669" 
d="M74 1499v92q242 -131 388 -390.5t146 -560.5q0 -296 -147 -557.5t-387 -390.5v92q126 115 181.5 316t55.5 541q0 342 -55.5 542.5t-181.5 315.5z" />
    <glyph glyph-name="asterisk" unicode="*" horiz-adv-x="888" 
d="M428 999l-119 -271l-176 129l221 196q29 -45 74 -54zM346 1084l-295 29l70 213l252 -154q-30 -33 -30 -71q0 -5 3 -17zM398 1190l-63 290h220l-65 -290q-24 10 -45 10q-20 0 -47 -10zM514 1171l256 153l67 -213l-295 -28q1 10 1 17q0 34 -29 71zM533 1052l220 -196
l-177 -128l-117 271q42 10 74 53z" />
    <glyph glyph-name="plus" unicode="+" 
d="M565 49v469h-469v148h469v469h148v-469h469v-148h-469v-469h-148z" />
    <glyph glyph-name="comma" unicode="," horiz-adv-x="543" 
d="M111 -296v92q124 0 124 170v34h-124v321h321v-248q0 -341 -321 -369z" />
    <glyph glyph-name="hyphen" unicode="-" horiz-adv-x="592" 
d="M62 530v186h469v-186h-469z" />
    <glyph glyph-name="period" unicode="." horiz-adv-x="543" 
d="M111 0v321h321v-321h-321z" />
    <glyph glyph-name="slash" unicode="/" horiz-adv-x="1080" 
d="M0 -296l922 1875h164l-922 -1875h-164z" />
    <glyph glyph-name="zero" unicode="0" 
d="M639 -37q-257 0 -415.5 214.5t-158.5 560.5q0 349 158.5 564t415.5 215q256 0 414.5 -215t158.5 -564q0 -346 -158.5 -560.5t-414.5 -214.5zM639 56q130 0 194.5 171t64.5 512q0 343 -66 514.5t-199 171.5q-126 0 -189.5 -171.5t-63.5 -514.5q0 -341 65 -512t194 -171z
" />
    <glyph glyph-name="one" unicode="1" 
d="M800 1493v-1203q0 -142 25 -162.5t216 -33.5l18 -1v-93h-814v93l19 1q214 17 221 47q19 78 19 149v857q0 108 -15 139.5t-67 31.5q-19 0 -158 -18l-19 -2v99z" />
    <glyph glyph-name="two" unicode="2" 
d="M114 0v99q78 221 339 452l61 54q281 248 281 498q0 145 -77 230.5t-207 85.5q-111 0 -181 -63q-32 -29 -37 -81l-3 -97l-1 -18h-136v276q224 82 429 82q240 0 382.5 -109t142.5 -292q0 -235 -312 -436q-107 -68 -141 -96l-83 -66q-159 -127 -171 -272h703v-247h-989z" />
    <glyph glyph-name="three" unicode="3" 
d="M163 17v279h136l1 -18q4 -58 4 -64q0 -74 61.5 -116.5t168.5 -42.5q129 0 210 90.5t81 235.5q0 173 -110 265.5t-315 92.5h-101v92h85q200 0 299.5 76t99.5 227q0 130 -70 210.5t-183 80.5q-105 0 -172 -52q-31 -25 -37 -75l-5 -101l-1 -19h-142v274q198 65 410 65
q237 0 367 -90.5t130 -257.5q0 -132 -86 -229t-246 -143q185 -39 283.5 -143t98.5 -261q0 -199 -151.5 -314.5t-412.5 -115.5q-120 0 -220.5 13.5t-182.5 40.5z" />
    <glyph glyph-name="four" unicode="4" 
d="M755 401h-703v167l732 931h218v-888h173v-210h-173v-111q0 -134 20 -161.5t122 -34.5l18 -1v-93h-567v93l18 1q102 7 122 34.5t20 161.5v111zM202 611h553v698z" />
    <glyph glyph-name="five" unicode="5" 
d="M213 10v274h136l1 -19q9 -135 43 -161q62 -49 141 -49q123 0 194.5 92.5t71.5 251.5q0 197 -113 295t-340 98q-47 0 -106 -6v694h845v-228h-724l-28 -365l96 2q342 0 513 -117.5t171 -352.5q0 -212 -155 -334t-425 -122q-131 0 -321 47z" />
    <glyph glyph-name="six" unicode="6" 
d="M386 783q65 85 153.5 127.5t199.5 42.5q199 0 328.5 -131t129.5 -331q0 -228 -152 -378t-383 -150q-277 0 -431 196t-154 548q0 372 174 591t469 219q207 0 399 -59v-267h-136l-1 18q-2 51 -3 69q0 68 -61 107.5t-164 39.5q-173 0 -271 -157t-98 -433zM395 530
q0 -217 76.5 -346t204.5 -129q105 0 165 101t60 280q0 183 -67.5 288t-184.5 105q-119 0 -186.5 -79.5t-67.5 -219.5z" />
    <glyph glyph-name="seven" unicode="7" 
d="M270 0q27 214 117 364.5t497 667.5l159 202h-838v246h1012v-188q-598 -728 -626 -1292h-321z" />
    <glyph glyph-name="eight" unicode="8" 
d="M395 789q-218 154 -218 347q0 168 135.5 275t350.5 107q204 0 329.5 -90.5t125.5 -237.5q0 -199 -290 -352q358 -184 358 -439q0 -193 -153 -314.5t-397 -121.5q-247 0 -393 108.5t-146 291.5q0 250 315 416zM741 886q122 129 122 283q0 129 -53.5 193t-160.5 64
q-95 0 -160 -64t-65 -157q0 -144 231 -271zM478 727q-103 -167 -103 -330q0 -158 74.5 -249.5t202.5 -91.5q116 0 191.5 75.5t75.5 192.5q0 103 -55 162t-253 168z" />
    <glyph glyph-name="nine" unicode="9" 
d="M891 697q-65 -85 -153.5 -127.5t-200.5 -42.5q-198 0 -327.5 131t-129.5 331q0 229 151.5 378.5t383.5 149.5q276 0 430.5 -196t154.5 -547q0 -372 -174 -591.5t-468 -219.5q-210 0 -400 59v268h135l2 -19q3 -53 3 -69q0 -68 60.5 -107t163.5 -39q173 0 271 156.5
t98 432.5v52zM882 951q0 216 -76.5 345t-205.5 129q-105 0 -164.5 -101t-59.5 -279q0 -184 67 -288.5t185 -104.5q119 0 186.5 79.5t67.5 219.5z" />
    <glyph glyph-name="colon" unicode=":" horiz-adv-x="543" 
d="M123 0v296h296v-296h-296zM123 802v296h296v-296h-296z" />
    <glyph glyph-name="semicolon" unicode=";" horiz-adv-x="543" 
d="M123 -296v92q112 17 112 167v37h-112v296h296v-218q0 -334 -296 -374zM123 802v296h296v-296h-296z" />
    <glyph glyph-name="less" unicode="&#x3c;" 
d="M1182 49l-1086 543l1086 543v-173l-755 -370l755 -370v-173z" />
    <glyph glyph-name="equal" unicode="=" 
d="M96 345v148h1086v-148h-1086zM96 691v148h1086v-148h-1086z" />
    <glyph glyph-name="greater" unicode="&#x3e;" 
d="M96 1135l1086 -543l-1086 -543v173l755 370l-755 370v173z" />
    <glyph glyph-name="question" unicode="?" horiz-adv-x="1035" 
d="M283 0v247h296v-247h-296zM283 419v17q0 165 153 297l63 55q158 137 158 330q0 139 -69 223t-183 84q-99 0 -164 -58q-29 -25 -36 -170l-1 -19h-136v276q183 64 403 64q223 0 360 -91.5t137 -240.5q0 -145 -157 -260q-67 -49 -91 -69l-45 -39q-58 -50 -77 -124.5
t-19 -254.5v-20h-296z" />
    <glyph glyph-name="at" unicode="@" horiz-adv-x="1763" 
d="M1100 46q-190 -83 -354 -83q-282 0 -468.5 175.5t-186.5 440.5q0 371 285 654.5t657 283.5q280 0 471 -179.5t191 -443.5q0 -249 -155.5 -423.5t-378.5 -174.5q-162 0 -162 110q0 64 55 223h-37q-107 -166 -204.5 -249.5t-184.5 -83.5q-88 0 -132.5 57.5t-44.5 171.5
q0 245 164.5 446t364.5 201q58 0 152 -31q9 -3 28 -9h128l-104 -521q-13 -64 -13 -114q0 -87 80 -87q130 0 240.5 154t110.5 335q0 222 -166.5 374t-408.5 152q-336 0 -589.5 -258.5t-253.5 -600.5q0 -218 156 -364t390 -146q155 0 339 77zM1043 790l48 233q-40 30 -85 45
t-95 15q-113 0 -198 -151.5t-85 -353.5q0 -67 22 -100.5t66 -33.5q66 0 147.5 86.5t179.5 259.5z" />
    <glyph glyph-name="A" unicode="A" horiz-adv-x="1629" 
d="M405 450l-75 -159q-55 -118 -55 -161q0 -33 63 -33q9 -1 38 -3l19 -1v-93h-395v93l19 1q80 5 100.5 26t89.5 171l551 1202h103l555 -1203q73 -149 93.5 -169t104.5 -27l13 -1v-93h-617v93l19 1q126 8 128 39q2 30 -57 159l-73 158h-624zM451 549h531l-270 575z" />
    <glyph glyph-name="B" unicode="B" horiz-adv-x="1308" 
d="M812 768q207 -41 310 -141t103 -258q0 -184 -122 -276.5t-367 -92.5h-693v93l19 1q101 7 121 34.5t20 161.5v901q0 134 -19.5 161t-121.5 35l-19 1v92h690q215 0 322.5 -82t107.5 -247q0 -128 -87.5 -224t-263.5 -159zM499 709v-420q0 -113 27 -145.5t120 -32.5
q119 0 191 76t72 201q0 144 -96.5 232.5t-251.5 88.5h-62zM499 808h61q149 0 223 74.5t74 223.5q0 138 -74 207t-222 69h-62v-574z" />
    <glyph glyph-name="C" unicode="C" horiz-adv-x="1456" 
d="M1364 57q-228 -94 -493 -94q-374 0 -583 205t-209 573q0 370 204 573t576 203q226 0 479 -65v-305h-149v19q0 133 -43 169q-100 84 -283 84q-218 0 -337 -175.5t-119 -497.5q0 -329 133.5 -494t399.5 -165q184 0 424 110v-140z" />
    <glyph glyph-name="D" unicode="D" horiz-adv-x="1625" 
d="M43 0v93l19 1q101 7 121 34.5t20 161.5v901q0 134 -19.5 161t-121.5 35l-19 1v92h485l215 3l79 1q349 0 537 -185q187 -185 187 -528q0 -352 -190.5 -561.5t-510.5 -209.5h-802zM510 1382v-1092q0 -122 37.5 -153.5t182.5 -31.5q245 0 367 166.5t122 499.5
q0 332 -135.5 471.5t-459.5 139.5h-114z" />
    <glyph glyph-name="E" unicode="E" horiz-adv-x="1231" 
d="M1172 0h-1129v93l19 1q101 7 121 34.5t20 161.5v901q0 134 -19.5 161t-121.5 35l-19 1v92h1086v-265h-148l-2 19q-3 51 -3 60q0 56 -26.5 72t-119.5 16h-318v-562h206q119 0 136.5 6t19.5 93l2 19h105v-321h-105l-2 18q-2 79 -28 89t-127 10h-213v-444q0 -166 39 -177
q29 -8 159 -8h124q150 0 168.5 14.5t26.5 139.5l1 19h148v-278z" />
    <glyph glyph-name="F" unicode="F" horiz-adv-x="1197" 
d="M512 697v-407q7 -149 23 -168t143 -28l19 -1v-93h-654v93l19 1q101 7 121 34.5t20 161.5v901q0 134 -19.5 161t-121.5 35l-19 1v92h1080v-277h-148l-1 18q-3 47 -3 66q0 61 -26 78t-120 17h-313v-599h206q119 0 136.5 6t17.5 46q0 6 2 47l2 19h105v-321h-105l-2 18
q-2 31 -2 40q0 39 -26 49t-127 10h-207z" />
    <glyph glyph-name="G" unicode="G" horiz-adv-x="1542" 
d="M1349 30q-306 -67 -505 -67q-352 0 -558.5 210t-206.5 568q0 372 204.5 574t580.5 202q232 0 484 -65v-292h-148v18q0 123 -33 154q-96 87 -306 87q-227 0 -340.5 -169.5t-113.5 -508.5t121.5 -508.5t364.5 -169.5q72 0 148 25v274q0 134 -20 161.5t-122 34.5l-18 2v92
h629v-92l-19 -2q-101 -6 -121.5 -34t-20.5 -162v-332z" />
    <glyph glyph-name="H" unicode="H" horiz-adv-x="1635" 
d="M512 726v-436q0 -134 20 -161.5t122 -34.5l18 -1v-93h-629v93l19 1q101 7 121 34.5t20 161.5v901q0 134 -19.5 161t-121.5 35l-19 1v92h629v-92l-18 -1q-103 -8 -122.5 -35t-19.5 -161v-360h611v360q0 134 -19.5 161t-121.5 35l-19 1v92h629v-92l-18 -1
q-103 -8 -122.5 -35t-19.5 -161v-901q0 -134 20 -161.5t122 -34.5l18 -1v-93h-629v93l19 1q101 7 121 34.5t20 161.5v436h-611z" />
    <glyph glyph-name="I" unicode="I" horiz-adv-x="716" 
d="M672 0h-629v93l19 1q101 7 121 34.5t20 161.5v901q0 134 -19.5 161t-121.5 35l-19 1v92h629v-92l-18 -1q-103 -8 -122.5 -35t-19.5 -161v-901q0 -134 20 -161.5t122 -34.5l18 -1v-93z" />
    <glyph glyph-name="J" unicode="J" horiz-adv-x="925" 
d="M-12 -265v265h148l1 -19q2 -31 4 -56q5 -123 108 -123q95 0 130 69.5t35 256.5v1063q0 134 -19.5 161t-121.5 35l-19 1v92h629v-92l-18 -1q-103 -8 -122.5 -35t-19.5 -161v-960q0 -284 -112 -405q-113 -122 -377 -122q-108 0 -246 31z" />
    <glyph glyph-name="K" unicode="K" horiz-adv-x="1530" 
d="M499 712v-422q0 -169 33 -179q55 -15 85 -17l18 -1v-93h-592v93l19 1q101 7 121 34.5t20 161.5v901q0 134 -19.5 161t-121.5 35l-19 1v92h592v-92l-18 -1q-84 -7 -101 -35t-17 -161v-394l432 394q160 146 160 174q0 23 -100 23h-18v92h450v-92l-18 -1q-95 -7 -117.5 -21
t-204.5 -180l-346 -319l502 -580q131 -145 162.5 -167t114.5 -26l18 -1v-93h-715v93h18q123 0 125 30q1 22 -117 167z" />
    <glyph glyph-name="L" unicode="L" horiz-adv-x="1197" 
d="M1178 0h-1135v93l19 1q101 7 121 34.5t20 161.5v901q0 134 -19.5 161t-121.5 35l-19 1v92h629v-92l-18 -1q-103 -8 -122.5 -35t-19.5 -161v-901q0 -166 39 -177q29 -8 159 -8h124q76 0 143 8q34 4 43 25t9 195l1 19h148v-352z" />
    <glyph glyph-name="M" unicode="M" horiz-adv-x="1851" 
d="M43 1480h493l410 -958l418 958h445v-92l-19 -1q-103 -8 -122.5 -35t-19.5 -161v-901q0 -134 20 -161.5t121 -34.5l19 -1v-93h-580v93l19 1q84 5 100.5 33t16.5 163v878l-462 -1003h-99l-451 1065v-940q0 -133 17 -162t100 -34l18 -1v-93h-444v93l19 1q101 7 121 34.5
t20 161.5v901q0 134 -19.5 161t-121.5 35l-19 1v92z" />
    <glyph glyph-name="N" unicode="N" horiz-adv-x="1613" 
d="M1174 -21l-823 1121v-810q0 -134 20 -161.5t122 -34.5l18 -1v-93h-467v93l19 1q101 7 121 34.5t20 161.5v901q0 134 -19.5 161t-121.5 35l-19 1v92h372l817 -1118v829q0 134 -19.5 161t-122.5 35l-19 1v92h466v-92l-18 -1q-101 -8 -121 -35t-20 -161v-1212h-205z" />
    <glyph glyph-name="O" unicode="O" horiz-adv-x="1659" 
d="M830 -37q-349 0 -550 208.5t-201 568.5q0 361 201 569t550 208q348 0 549 -208t201 -569q0 -360 -201 -568.5t-549 -208.5zM830 62q212 0 317.5 170.5t105.5 511.5q0 338 -105.5 506.5t-317.5 168.5q-211 0 -317 -168.5t-106 -506.5q0 -341 106 -511.5t317 -170.5z" />
    <glyph glyph-name="P" unicode="P" horiz-adv-x="1258" 
d="M499 606v-316q0 -136 22 -162t145 -34l19 -1v-93h-642v93l19 1q101 7 121 34.5t20 161.5v901q0 134 -19.5 161t-121.5 35l-19 1v92h456l191 5l84 2q437 0 437 -392q0 -244 -155 -366.5t-465 -122.5h-92zM499 705h59q170 0 255 92t85 275q0 310 -291 310h-108v-677z" />
    <glyph glyph-name="Q" unicode="Q" horiz-adv-x="1659" 
d="M988 -22q-79 -15 -156 -15q-350 0 -551.5 207.5t-201.5 569.5q0 361 201 569t550 208q348 0 549 -208t201 -569q0 -272 -112 -453.5t-336 -273.5q255 -106 702 -134l-248 -183q-298 78 -598 282zM1253 739q0 340 -105.5 510t-317.5 170q-211 0 -317 -168.5t-106 -506.5
q0 -341 106 -511.5t317 -170.5q212 0 317.5 169.5t105.5 507.5z" />
    <glyph glyph-name="R" unicode="R" horiz-adv-x="1474" 
d="M499 648v-358q0 -133 17.5 -162t100.5 -34l18 -1v-93h-592v93l19 1q101 7 121 34.5t20 161.5v901q0 134 -19.5 161t-121.5 35l-19 1v92h431l183 5l91 2q458 0 458 -375q0 -153 -71 -259t-214 -164l289 -402q107 -144 135.5 -166t112.5 -27l19 -1v-93h-441l-410 648h-127z
M499 747h55q157 0 249 93t92 254q0 288 -284 288h-112v-635z" />
    <glyph glyph-name="S" unicode="S" horiz-adv-x="1138" 
d="M100 18v309h148l1 -24q7 -131 51 -167q91 -74 216 -74q118 0 191.5 73t73.5 191q0 93 -43 150q-43 56 -166 124l-99 54q-371 205 -371 446q0 189 134 303.5t356 114.5q174 0 398 -66v-298h-149l-1 18q-8 140 -41 174q-74 73 -186 73q-95 0 -161 -68.5t-66 -168.5
q0 -76 43.5 -128.5t165.5 -122.5l100 -58q219 -126 300 -224q80 -99 80 -241q0 -203 -151.5 -324t-407.5 -121q-181 0 -416 55z" />
    <glyph glyph-name="T" unicode="T" horiz-adv-x="1462" 
d="M577 1382h-241q-93 0 -119.5 -25.5t-27.5 -156.5l-1 -28h-148v308h1382v-308h-148l-1 28q-1 131 -27.5 156.5t-119.5 25.5h-241v-1092q7 -149 23 -168t144 -28l18 -1v-93h-678v93l18 1q122 8 144.5 34.5t22.5 161.5v1092z" />
    <glyph glyph-name="U" unicode="U" horiz-adv-x="1530" 
d="M19 1480h629v-92l-18 -1q-102 -8 -121.5 -35t-19.5 -161v-640q0 -267 77.5 -379t262.5 -112q197 0 286.5 118.5t89.5 380.5v632q0 134 -19.5 161t-122.5 35l-18 1v92h465v-92l-18 -1q-101 -8 -120 -35t-19 -161v-608q0 -319 -137 -469q-137 -151 -427 -151
q-610 0 -610 600v621q0 134 -20 162t-121 34l-19 2v98z" />
    <glyph glyph-name="V" unicode="V" horiz-adv-x="1542" 
d="M730 -19l-523 1212q-71 162 -83.5 174.5t-104.5 19.5l-19 1v92h642v-92l-19 -1q-39 -1 -77.5 -2t-38.5 -41q0 -30 51 -151l331 -780l320 779q10 26 30.5 84.5t20.5 72.5q0 37 -62 37l-57 1l-18 1v92h419v-92l-18 -1q-28 -2 -43 -3q-50 -2 -68.5 -26t-79.5 -165
l-503 -1212h-100z" />
    <glyph glyph-name="W" unicode="W" horiz-adv-x="1955" 
d="M524 -19l-342 1208q-46 149 -63.5 170.5t-99.5 27.5l-19 1v92h580v-92h-19q-120 0 -120 -36q0 -46 33 -163l195 -685l306 958h113l326 -1017l234 740q8 26 24 85.5t16 75.5q0 42 -109 42h-18v92h394v-92l-18 -1q-33 -3 -45 -3q-52 0 -64 -18t-64 -181l-384 -1204h-97
l-332 1027l-326 -1027h-101z" />
    <glyph glyph-name="X" unicode="X" horiz-adv-x="1437" 
d="M550 739l-270 447q-93 150 -117.5 172.5t-100.5 28.5l-19 1v92h636v-92h-19q-113 0 -114 -30q-2 -33 82 -172l185 -309l226 310q100 137 100 168q0 33 -97 33h-18v92h413v-92q-12 -1 -56.5 -4t-67 -21.5t-136.5 -176.5l-283 -398l299 -496q95 -149 119.5 -171.5
t100.5 -26.5l18 -1v-93h-635v93h18q116 0 118 31q2 25 -83 168l-216 360l-243 -360q-91 -133 -91 -166t102 -33h18v-93h-419v93l19 1q84 5 104.5 22.5t126.5 175.5z" />
    <glyph glyph-name="Y" unicode="Y" horiz-adv-x="1468" 
d="M575 640l-336 542q-63 101 -71 116q-34 64 -50.5 73.5t-101.5 15.5l-20 1v92h642v-92h-16q-116 0 -118 -33q-2 -32 85 -174l251 -412l257 412q85 137 85 169q0 38 -97 38h-22v92h407v-92l-18 -1q-89 -7 -100.5 -18t-124.5 -187l-344 -540v-352q0 -134 20 -161.5
t122 -34.5l18 -1v-93h-629v93l19 1q102 7 122 34.5t20 161.5v350z" />
    <glyph glyph-name="Z" unicode="Z" horiz-adv-x="1308" 
d="M90 0v111l757 1258h-412q-91 0 -115 -14.5t-24 -69.5q0 -77 -1 -98l-1 -15h-148v308h1039v-111l-751 -1258h412q154 0 169.5 13.5t23.5 156.5l1 21h148v-302h-1098z" />
    <glyph glyph-name="bracketleft" unicode="[" horiz-adv-x="669" 
d="M136 -296v1875h463v-92h-210v-1691h210v-92h-463z" />
    <glyph glyph-name="backslash" unicode="\" horiz-adv-x="1080" 
d="M913 -296l-914 1875h170l911 -1875h-167z" />
    <glyph glyph-name="bracketright" unicode="]" horiz-adv-x="669" 
d="M534 1579v-1875h-463v92h210v1691h-210v92h463z" />
    <glyph glyph-name="asciicircum" unicode="^" 
d="M639 1149l-377 -754h-166l543 1085l543 -1085h-166z" />
    <glyph glyph-name="underscore" unicode="_" horiz-adv-x="1024" 
d="M93 -160v160h839v-160h-839z" />
    <glyph glyph-name="grave" unicode="`" horiz-adv-x="1265" 
d="M322 1579h275l218 -296h-120z" />
    <glyph glyph-name="a" unicode="a" horiz-adv-x="1139" 
d="M711 127q-79 -76 -161.5 -114t-168.5 -38q-146 0 -242 90.5t-96 228.5q0 161 122 257q73 58 173 80.5t282 22.5h50v133q0 141 -35.5 192t-131.5 51q-117 0 -176 -63q-20 -20 -26 -134l-1 -19h-161v222q190 87 397 87q208 0 319 -86t111 -247v-482q0 -128 19 -174
q18 -47 69 -47q15 0 35 6l13 -93q-77 -25 -151 -25q-81 0 -141 38t-99 114zM670 200v364h-39q-148 0 -222.5 -59.5t-74.5 -178.5q0 -88 47.5 -140.5t127.5 -52.5q45 0 85 17t76 50z" />
    <glyph glyph-name="b" unicode="b" horiz-adv-x="1311" 
d="M160 0v1289q0 134 -20 162t-121 34l-19 2v92h456v-688q63 116 156 174t216 58q190 0 302.5 -148t112.5 -399q0 -274 -127 -437.5t-339 -163.5q-91 0 -171 34t-150 102l-43 -111h-253zM456 222q60 -53 115.5 -79.5t106.5 -26.5q125 0 187.5 107.5t62.5 321.5
q0 194 -55 290.5t-166 96.5q-65 0 -128 -36t-123 -108v-566z" />
    <glyph glyph-name="c" unicode="c" horiz-adv-x="1107" 
d="M1006 26q-171 -51 -328 -51q-287 0 -451.5 156.5t-164.5 430.5q0 262 156 411.5t430 149.5q173 0 354 -50v-283h-142l-1 18q-8 125 -30 152q-56 70 -173 70q-140 0 -210 -114t-70 -342q0 -233 93.5 -350t279.5 -117q115 0 257 56v-137z" />
    <glyph glyph-name="d" unicode="d" horiz-adv-x="1335" 
d="M854 0v207q-61 -116 -154 -174t-217 -58q-191 0 -303 148t-112 399q0 274 127 437.5t340 163.5q92 0 171.5 -34t147.5 -102v302q0 134 -19.5 162t-121.5 34l-19 2v92h457v-1289q0 -134 20 -161.5t121 -34.5l19 -1v-93h-457zM854 876q-59 53 -114 79.5t-107 26.5
q-125 0 -187.5 -107t-62.5 -321q0 -194 55.5 -291t165.5 -97q66 0 128.5 36t121.5 108v566z" />
    <glyph glyph-name="e" unicode="e" horiz-adv-x="1151" 
d="M1052 43q-196 -68 -382 -68q-281 0 -444.5 158t-163.5 429q0 250 147.5 405.5t384.5 155.5q458 0 458 -562v-22h-686q0 -208 97 -312t291 -104q132 0 298 72v-152zM373 632h387v35q0 199 -40 281t-138 82q-104 0 -156.5 -99.5t-52.5 -298.5z" />
    <glyph glyph-name="f" unicode="f" horiz-adv-x="851" 
d="M209 999h-154v99h154v44q0 231 99.5 346.5t297.5 115.5q152 0 284 -63v-233h-136l-1 18q-12 183 -107 183q-79 0 -110 -58.5t-31 -209.5v-143h278v-99h-278v-709q0 -134 20.5 -161.5t121.5 -34.5l19 -1v-93h-617v93l19 1q101 7 121 34.5t20 161.5v709z" />
    <glyph glyph-name="g" unicode="g" horiz-adv-x="1226" 
d="M278 39q-115 60 -115 144q0 54 52.5 105.5t157.5 100.5q-123 46 -184.5 133t-61.5 215q0 176 121.5 281t324.5 105q64 0 120.5 -10t106.5 -30l409 34l-62 -158l-217 30q95 -113 95 -246q0 -165 -119 -276.5t-295 -111.5q-36 0 -98 5l-58 10q-34 -26 -51 -51.5t-17 -51.5
q0 -63 163 -63h168q234 0 333 -59q98 -60 98 -201q0 -164 -157.5 -264t-416.5 -100q-232 0 -380 66t-148 169q0 150 231 224zM405 733q0 -146 43 -219.5t128 -73.5q86 0 128.5 73.5t42.5 219.5q0 147 -42.5 220t-128.5 73q-85 0 -128 -73t-43 -220zM374 12q-41 -89 -41 -143
q0 -81 78 -138.5t187 -57.5q119 0 198.5 62t79.5 154q0 62 -56.5 92.5t-169.5 30.5h-276z" />
    <glyph glyph-name="h" unicode="h" horiz-adv-x="1339" 
d="M487 891q68 116 162 174t214 58q148 0 232 -91q83 -92 83 -255v-487q0 -134 20.5 -161.5t121.5 -34.5l19 -1v-93h-617v93l18 1q102 7 122 34.5t20 161.5v453q0 117 -27.5 158.5t-105.5 41.5q-67 0 -132.5 -40.5t-129.5 -122.5v-490q0 -134 20.5 -161.5t121.5 -34.5l19 -1
v-93h-617v93l19 1q101 7 121 34.5t20 161.5v999q0 134 -20 162t-121 34l-19 2v92h456v-688z" />
    <glyph glyph-name="i" unicode="i" horiz-adv-x="666" 
d="M487 1098v-808q0 -134 20.5 -161.5t121.5 -34.5l19 -1v-93h-617v93l19 1q101 7 121 34.5t20 161.5v518q0 134 -20 161.5t-121 34.5l-19 1v93h456zM191 1283v296h296v-296h-296z" />
    <glyph glyph-name="j" unicode="j" horiz-adv-x="728" 
d="M561 1098v-1076q0 -221 -107.5 -331.5t-323.5 -110.5q-103 0 -244 41v268h136l1 -19q7 -126 29 -162t90 -36q77 0 100 52t23 223v861q0 134 -20 161.5t-122 34.5l-18 1v93h456zM265 1283v296h296v-296h-296z" />
    <glyph glyph-name="k" unicode="k" horiz-adv-x="1340" 
d="M487 530v-240q0 -133 17.5 -162t100.5 -34l18 -1v-93h-592v93l19 1q101 7 121 34.5t20 161.5v999q0 134 -20 162t-121 34l-19 2v92h456v-987h50l242 227q135 126 135 163q0 23 -87 23h-19v93h432v-93l-18 -1q-89 -6 -127.5 -29t-195.5 -168l-146 -139l304 -381
q111 -133 149 -160.5t114 -32.5l19 -1v-93h-438l-368 530h-46z" />
    <glyph glyph-name="l" unicode="l" horiz-adv-x="666" 
d="M487 1579v-1289q0 -134 20.5 -161.5t121.5 -34.5l19 -1v-93h-617v93l19 1q101 7 121 34.5t20 161.5v999q0 134 -20 162t-121 34l-19 2v92h456z" />
    <glyph glyph-name="m" unicode="m" horiz-adv-x="1980" 
d="M475 891q81 116 175.5 174t202.5 58q120 0 190.5 -58t91.5 -174q98 116 197 174t198 58q290 0 290 -315v-518q0 -134 20 -161.5t122 -34.5l18 -1v-93h-580v93l19 1q84 5 100.5 33.5t16.5 162.5v451q0 201 -128 201q-72 0 -137 -43t-123 -130v-479q0 -133 17 -162t100 -34
l18 -1v-93h-555v93l19 1q84 5 100.5 33t16.5 163v451q0 101 -32 151.5t-97 50.5q-74 0 -139 -42.5t-121 -128.5v-482q0 -133 17.5 -162t99.5 -34l19 -1v-93h-580v93l19 1q101 7 121 34.5t20 161.5v518q0 134 -20 161.5t-121 34.5l-19 1v93h444v-207z" />
    <glyph glyph-name="n" unicode="n" horiz-adv-x="1339" 
d="M487 891q68 116 162 174t214 58q148 0 232 -91q83 -92 83 -255v-487q0 -134 20.5 -161.5t121.5 -34.5l19 -1v-93h-617v93l18 1q102 7 122 34.5t20 161.5v453q0 117 -27.5 158.5t-105.5 41.5q-67 0 -132.5 -40.5t-129.5 -122.5v-490q0 -134 20.5 -161.5t121.5 -34.5l19 -1
v-93h-617v93l19 1q101 7 121 34.5t20 161.5v518q0 134 -20 161.5t-121 34.5l-19 1v93h456v-207z" />
    <glyph glyph-name="o" unicode="o" horiz-adv-x="1265" 
d="M633 -25q-266 0 -418.5 153.5t-152.5 420.5t152.5 420.5t418.5 153.5q265 0 417.5 -153.5t152.5 -420.5t-152.5 -420.5t-417.5 -153.5zM633 80q122 0 182.5 117.5t60.5 351.5q0 235 -60.5 352t-182.5 117t-183 -117t-61 -352q0 -234 61 -351.5t183 -117.5z" />
    <glyph glyph-name="p" unicode="p" horiz-adv-x="1335" 
d="M481 111v-216q0 -133 20.5 -161t121.5 -35l19 -1v-93h-617v93l19 1q101 7 121 34.5t20 161.5v913q0 134 -20 161.5t-121 34.5l-19 1v93h456v-207q63 116 156 174t216 58q190 0 302.5 -148t112.5 -399q0 -274 -127 -437.5t-339 -163.5q-91 0 -171 34t-150 102zM481 222
q60 -53 115.5 -79.5t106.5 -26.5q125 0 187.5 107.5t62.5 321.5q0 194 -55 290.5t-166 96.5q-65 0 -128 -36t-123 -108v-566z" />
    <glyph glyph-name="q" unicode="q" horiz-adv-x="1311" 
d="M854 207q-61 -116 -154 -174t-217 -58q-191 0 -303 148t-112 399q0 274 127 437.5t340 163.5q92 0 171.5 -34t147.5 -102v111h297v-1203q0 -134 20 -161.5t121 -34.5l19 -1v-93h-617v93l19 1q101 7 121 34.5t20 161.5v312zM854 870q-59 53 -114 79.5t-107 26.5
q-125 0 -187.5 -107t-62.5 -322q0 -193 55 -290t165 -97q67 0 129.5 36t121.5 108v566z" />
    <glyph glyph-name="r" unicode="r" horiz-adv-x="947" 
d="M487 785v-495q0 -136 22 -162t145 -34l19 -1v-93h-642v93l19 1q101 7 121 34.5t20 161.5v518q0 134 -20 161.5t-121 34.5l-19 1v93h456v-207q135 232 350 232q23 0 58 -8v-350h-136l-1 18q-8 111 -14.5 125.5t-49.5 14.5q-128 0 -207 -138z" />
    <glyph glyph-name="s" unicode="s" horiz-adv-x="1074" 
d="M111 50v283h136l1 -18q6 -124 38 -159q80 -88 237 -88q76 0 128.5 49t52.5 121q0 111 -187 185l-91 36q-315 125 -315 337q0 150 121.5 238.5t328.5 88.5q164 0 342 -52v-263h-136l-1 19l-2 48q0 155 -181 155q-79 0 -134 -51t-55 -125q0 -62 40.5 -97.5t166.5 -83.5
l90 -35q307 -118 307 -316q0 -151 -130 -249t-330 -98q-248 0 -427 75z" />
    <glyph glyph-name="t" unicode="t" horiz-adv-x="796" 
d="M744 9q-93 -34 -182 -34q-185 0 -277.5 91.5t-92.5 274.5v658h-136v99h136v185l296 52v-237h243v-99h-243v-665q0 -147 29 -194t120 -47q50 0 107 23v-107z" />
    <glyph glyph-name="u" unicode="u" horiz-adv-x="1339" 
d="M851 0v207q-67 -116 -161 -174t-215 -58q-147 0 -231 92t-84 254v487q0 134 -20 161.5t-121 34.5l-19 1v93h456v-743q0 -115 30 -158.5t107 -43.5q71 0 135.5 41t122.5 122v492q0 134 -20 161.5t-122 34.5l-18 1v93h456v-808q0 -134 20.5 -161.5t121.5 -34.5l19 -1v-93
h-457z" />
    <glyph glyph-name="v" unicode="v" horiz-adv-x="1345" 
d="M620 -12l-394 816q-70 136 -100.5 165.5t-106.5 34.5l-19 1v93h617v-93l-19 -1q-106 -7 -109 -40q-2 -23 64 -160l218 -454l225 454q67 134 67 166q0 27 -107 34l-18 1v93h407v-93l-19 -1q-78 -5 -105 -30.5t-101 -166.5l-409 -819h-91z" />
    <glyph glyph-name="w" unicode="w" horiz-adv-x="1801" 
d="M484 -12l-287 819q-52 135 -78 163.5t-100 33.5l-19 1v93h574v-93h-19q-117 0 -117 -39q0 -42 39 -155l153 -446l298 727h106l286 -727l162 439q3 8 21 55q30 76 30 100q0 46 -114 46h-19v93h401v-93l-18 -1q-84 -5 -111 -33.5t-76 -161.5l-303 -821h-92l-299 772
l-322 -772h-96z" />
    <glyph glyph-name="x" unicode="x" horiz-adv-x="1246" 
d="M486 527l-207 286q-99 130 -135 158t-107 33l-18 1v93h616v-93h-18q-108 0 -109 -29t91 -160l95 -133l112 134q109 130 109 161q0 27 -88 27h-19v93h420v-93l-19 -1q-88 -4 -112.5 -21.5t-151.5 -165.5l-187 -225l218 -304q100 -132 137.5 -160.5t114.5 -33.5l18 -1v-93
h-611v93h19q106 0 107 28q2 23 -101 168l-105 143l-126 -142q-113 -129 -115 -168q-2 -29 81 -29h18v-93h-413v93l12 1q89 7 119 28t157 167z" />
    <glyph glyph-name="y" unicode="y" horiz-adv-x="1339" 
d="M207 -395l375 407l-369 799q-69 141 -93 164.5t-101 28.5l-19 1v93h623v-93h-18q-121 0 -121 -36q0 -21 63 -160l205 -453l240 454q72 135 72 165t-102 30h-18v93h395v-93l-19 -1q-86 -6 -108.5 -26.5t-100.5 -167.5l-642 -1205h-262z" />
    <glyph glyph-name="z" unicode="z" horiz-adv-x="1197" 
d="M101 0v105l640 900h-307q-118 0 -135 -16.5t-24 -137.5l-1 -18h-136v265h931v-93l-637 -900h354q102 0 130.5 13t30.5 61q2 37 4 68l1 18h136v-265h-987z" />
    <glyph glyph-name="braceleft" unicode="{" horiz-adv-x="750" 
d="M119 688h37q143 0 143 143q0 24 -27 141l-24 106q-28 124 -28 189q0 133 99.5 222.5t247.5 89.5h76v-92q-146 -19 -146 -161q0 -31 15 -110l13 -71q19 -104 19 -181q0 -233 -221 -322q219 -95 219 -322q0 -87 -20 -193l-13 -71q-16 -88 -16 -112q0 -123 150 -148v-92h-79
q-149 0 -248 85.5t-99 214.5q0 70 28 193l24 105q27 113 27 158q0 135 -140 135h-37v93z" />
    <glyph glyph-name="bar" unicode="|" horiz-adv-x="530" 
d="M185 -296v1875h160v-1875h-160z" />
    <glyph glyph-name="braceright" unicode="}" horiz-adv-x="750" 
d="M631 595h-37q-143 0 -143 -143q0 -24 27 -141l24 -106q29 -124 29 -189q0 -133 -100 -222.5t-248 -89.5h-76v92q146 21 146 162q0 30 -15 109l-13 71q-19 105 -19 180q0 233 222 324q-219 93 -219 323q0 86 19 191l13 71q16 88 16 112q0 124 -150 148v92h79
q149 0 248.5 -85.5t99.5 -213.5q0 -71 -29 -194l-24 -105q-26 -113 -26 -158q0 -135 139 -135h37v-93z" />
    <glyph glyph-name="asciitilde" unicode="~" 
d="M96 444q0 145 77 237t199 92q80 0 215 -71l107 -56q171 -91 219 -91q121 0 121 185h148q-21 -333 -266 -333q-89 0 -245 80l-112 58q-153 80 -190 80q-125 0 -125 -181h-148z" />
    <glyph glyph-name="uni00A0" unicode="&#xa0;" 
 />
    <glyph glyph-name="exclamdown" unicode="&#xa1;" horiz-adv-x="543" 
d="M419 1098v-247h-296v247h296zM317 679l102 -765v-296h-296v296l102 765h92z" />
    <glyph glyph-name="cent" unicode="&#xa2;" 
d="M661 0v158q-268 22 -412.5 173.5t-144.5 411.5q0 256 143 401t414 165v171h93v-172q164 -9 334 -47v-293h-136l-1 19q-10 141 -41.5 177t-155.5 49v-925q166 0 338 56v-136q-196 -52 -338 -52v-156h-93zM661 307v903q-241 -58 -241 -459q0 -373 241 -444z" />
    <glyph glyph-name="sterling" unicode="&#xa3;" 
d="M224 0v234q197 16 197 307v181h-160v105h160v162q0 256 108 392t311 136q120 0 310 -59v-261h-136l-1 18q-4 123 -35 162.5t-114 39.5q-85 0 -116 -59t-31 -223v-308h235v-93h-235v-119q0 -254 -299 -381h737v-234h-931z" />
    <glyph glyph-name="currency" unicode="&#xa4;" horiz-adv-x="1246" 
d="M345 404l-193 -193l-66 65l194 194q-94 128 -94 270q0 148 97 274l-197 198l66 65l197 -197q64 49 132.5 73t141.5 24q74 0 143 -24t132 -73l197 197l66 -65l-198 -198q97 -126 97 -274q0 -142 -93 -270l193 -194l-65 -65l-193 193q-64 -50 -133.5 -75.5t-145.5 -25.5
q-75 0 -144.5 25.5t-133.5 75.5zM623 451q120 0 204.5 84.5t84.5 204.5q0 119 -84.5 203.5t-204.5 84.5q-119 0 -203.5 -84.5t-84.5 -203.5q0 -120 84.5 -204.5t203.5 -84.5z" />
    <glyph glyph-name="yen" unicode="&#xa5;" 
d="M521 382h-260v93h260v173h-260v92h260l-293 454q-89 136 -113.5 163t-62.5 30l-19 1v93l580 -1v-92h-19q-108 0 -108 -30q0 -36 82 -165l215 -340l226 341q83 125 85 161q2 33 -111 33h-19v92h364v-92l-18 -1q-69 -5 -109 -72q-34 -58 -77 -122l-307 -453h259v-92h-259
v-173h259v-93h-259v-92q0 -134 20 -161.5t122 -34.5l18 -1v-93h-617v93l19 1q102 7 122 34.5t20 161.5v92z" />
    <glyph glyph-name="brokenbar" unicode="&#xa6;" horiz-adv-x="530" 
d="M185 -296v814h160v-814h-160zM185 765v814h160v-814h-160z" />
    <glyph glyph-name="section" unicode="&#xa7;" 
d="M178 -261v280h136l1 -19q2 -47 2.5 -93.5t58.5 -76.5q113 -58 261 -58q116 0 174 51t58 152q0 59 -38 93q-39 34 -168 89l-132 56q-353 151 -353 369q0 154 179 299q-185 95 -185 273q0 172 130.5 267.5t366.5 95.5q102 0 200.5 -13.5t194.5 -40.5v-291h-136l-1 19
q-3 51 -3 73q0 81 -64.5 121t-193.5 40q-97 0 -163.5 -61.5t-66.5 -151.5q0 -96 174 -168l122 -51q368 -152 368 -382q0 -139 -154 -304q92 -51 137.5 -123t45.5 -164q0 -161 -134.5 -251t-375.5 -90q-108 0 -218.5 15t-222.5 45zM866 358q34 65 34 143q0 85 -36.5 116.5
t-255.5 133.5l-169 81q-40 -59 -40 -133q0 -82 53.5 -132t218.5 -123z" />
    <glyph glyph-name="dieresis" unicode="&#xa8;" horiz-adv-x="1265" 
d="M324 1283v210h210v-210h-210zM731 1283v210h210v-210h-210z" />
    <glyph glyph-name="copyright" unicode="&#xa9;" horiz-adv-x="1752" 
d="M863 -37q-321 0 -549 228t-228 549q0 322 228 549.5t549 227.5q322 0 550 -227.5t228 -549.5q0 -321 -228 -549t-550 -228zM863 55q283 0 484 201t201 484t-201 484t-484 201t-484 -200.5t-201 -484.5q0 -283 201 -484t484 -201zM1199 338q-144 -42 -282 -42
q-204 0 -329.5 123.5t-125.5 324.5q0 199 121.5 316.5t327.5 117.5q65 0 139.5 -10t159.5 -30l-12 -188l-86 12l-13 87q-49 22 -93.5 32.5t-83.5 10.5q-127 0 -201 -93.5t-74 -253.5q0 -152 86.5 -249.5t221.5 -97.5q124 0 244 54v-114z" />
    <glyph glyph-name="ordfeminine" unicode="&#xaa;" horiz-adv-x="999" 
d="M606 825q-59 -55 -118.5 -82.5t-119.5 -27.5q-105 0 -175 62.5t-70 155.5q0 126 107 188.5t320 62.5h56v51q0 92 -39 138t-117 46q-63 0 -108 -26t-45 -62v-29l-1 -19h-136v163q181 71 320 71q204 0 295 -67q90 -67 90 -218v-245q0 -156 71 -156q11 0 28 2v-92
q-76 -26 -147 -26q-162 0 -211 110zM606 937v149h-47q-86 0 -129.5 -32.5t-43.5 -97.5q0 -44 20.5 -66t61.5 -22q31 0 65.5 17.5t72.5 51.5z" />
    <glyph glyph-name="guillemotleft" unicode="&#xab;" horiz-adv-x="1160" 
d="M583 925l-220 -376l219 -376l-76 -62l-444 438l445 438zM1051 925l-221 -376l220 -373l-76 -55l-444 428l445 434z" />
    <glyph glyph-name="logicalnot" unicode="&#xac;" 
d="M96 691v148h1086v-494h-148v346h-938z" />
    <glyph glyph-name="uni00AD" unicode="&#xad;" horiz-adv-x="592" 
d="M62 530v186h469v-186h-469z" />
    <glyph glyph-name="registered" unicode="&#xae;" 
d="M638 543q-202 0 -344.5 142.5t-142.5 344.5t142.5 344.5t344.5 142.5t345 -142.5t143 -344.5t-143 -344.5t-345 -142.5zM638 635q164 0 279.5 115.5t115.5 279.5t-115.5 279.5t-279.5 115.5q-163 0 -278.5 -115.5t-115.5 -279.5t115.5 -279.5t278.5 -115.5zM564 950v-185
h-160v92h49v334h-49v92h194q142 0 206 -34t64 -107q0 -53 -26.5 -93t-79.5 -67l61 -125h62v-92h-148l-81 185h-92zM564 1042h63q65 0 97.5 21.5t32.5 64.5q0 32 -32 47.5t-97 15.5h-64v-149z" />
    <glyph glyph-name="degree" unicode="&#xb0;" horiz-adv-x="531" 
d="M266 1184q-70 0 -118.5 48.5t-48.5 118.5q0 69 48.5 117.5t118.5 48.5q69 0 117.5 -48.5t48.5 -117.5q0 -70 -48.5 -118.5t-117.5 -48.5zM266 1277q30 0 52 21.5t22 52.5t-22 52.5t-52 21.5q-31 0 -52.5 -21.5t-21.5 -52.5t21.5 -52.5t52.5 -21.5z" />
    <glyph glyph-name="plusminus" unicode="&#xb1;" 
d="M96 0v148h1086v-148h-1086zM565 296v370h-469v148h469v370h148v-370h469v-148h-469v-370h-148z" />
    <glyph glyph-name="twosuperior" unicode="&#xb2;" horiz-adv-x="728" 
d="M38 728v75q48 119 206 238l34 26q148 112 148 224q0 66 -33 99t-100 33q-60 0 -78 -17.5t-22 -79.5l-2 -30h-131v175q147 46 272 46q149 0 238 -59.5t89 -159.5q0 -127 -193 -234q-58 -32 -79 -46l-47 -33q-52 -36 -79 -90h395v-167h-618z" />
    <glyph glyph-name="threesuperior" unicode="&#xb3;" horiz-adv-x="728" 
d="M66 742v177h131l2 -30q5 -55 25.5 -72t81.5 -17q69 0 103 34.5t34 102.5q0 77 -53.5 115t-161.5 38h-85v91h77q100 0 150 31.5t50 94.5q0 60 -28.5 89.5t-86.5 29.5q-61 0 -77 -15t-20 -76l-2 -30h-134v174q135 38 260 38q156 0 234 -48t78 -145q0 -54 -33 -98.5
t-100 -80.5q81 -34 121 -84.5t40 -117.5q0 -107 -94.5 -170.5t-254.5 -63.5q-146 0 -257 33z" />
    <glyph glyph-name="acute" unicode="&#xb4;" horiz-adv-x="1265" 
d="M668 1579h274l-373 -296h-120z" />
    <glyph glyph-name="uni00B5" unicode="&#xb5;" horiz-adv-x="1444" 
d="M210 -296v1104q0 134 -20 161.5t-122 34.5l-19 1v93h457v-747q0 -88 37 -132t111 -44q64 0 125.5 34t121.5 101v498q0 134 -20 161.5t-122 34.5l-19 1v93h457v-808q0 -134 20 -161.5t121 -34.5l19 -1v-93h-456v207q-63 -113 -136.5 -169.5t-158.5 -56.5q-22 0 -47 8
t-53 23v-308h-296z" />
    <glyph glyph-name="paragraph" unicode="&#xb6;" 
d="M547 -296v1036q-191 16 -300.5 126t-109.5 288q0 334 328 334l82 -2l195 -6h225v-1776h-93v1653h-240v-1653h-87z" />
    <glyph glyph-name="cedilla" unicode="&#xb8;" horiz-adv-x="1265" 
d="M481 -370v92q47 -12 82 -12q51 0 76 16.5t25 49.5q0 65 -143 80l102 144h110l-74 -109q174 -40 174 -144q0 -62 -55.5 -102t-141.5 -40q-74 0 -155 25z" />
    <glyph glyph-name="onesuperior" unicode="&#xb9;" horiz-adv-x="728" 
d="M485 1517v-612q0 -53 7 -64t38 -11l67 -2l36 -1v-87h-518v87l34 1q86 0 100 9.5t14 67.5v440q0 65 -42 65l-68 1l-38 2v84z" />
    <glyph glyph-name="ordmasculine" unicode="&#xba;" horiz-adv-x="999" 
d="M500 716q-208 0 -323 105t-115 296q0 190 115 295t323 105t323 -105t115 -295q0 -191 -115 -296t-323 -105zM500 808q87 0 130 77t43 231q0 155 -43 232t-130 77q-86 0 -129.5 -77t-43.5 -232q0 -154 43.5 -231t129.5 -77z" />
    <glyph glyph-name="guillemotright" unicode="&#xbb;" horiz-adv-x="1160" 
d="M577 173l220 376l-219 376l75 62l445 -438l-445 -438zM109 173l221 376l-220 373l76 55l444 -428l-445 -434z" />
    <glyph glyph-name="onequarter" unicode="&#xbc;" horiz-adv-x="1517" 
d="M395 1517v-612q0 -53 7 -64t38 -11l67 -2l36 -1v-87h-518v87l34 1q86 0 100 9.5t14 67.5v440q0 65 -42 65l-68 1l-38 2v84zM333 -37h-199l1127 1554h199zM1199 196h-401v113l432 473h165v-436h98v-150h-98v-30q0 -51 9.5 -64.5t45.5 -13.5l37 -2v-86h-382v86l39 2
q40 0 47.5 10.5t7.5 67.5v30zM968 346h231v251z" />
    <glyph glyph-name="onehalf" unicode="&#xbd;" horiz-adv-x="1517" 
d="M395 1517v-612q0 -53 7 -64t38 -11l67 -2l36 -1v-87h-518v87l34 1q86 0 100 9.5t14 67.5v440q0 65 -42 65l-68 1l-38 2v84zM253 -37h-199l1127 1554h199zM872 0v75q48 118 206 238l34 26q148 113 148 225q0 66 -33 98.5t-100 32.5q-60 0 -78 -17.5t-22 -79.5l-2 -30h-131
v175q146 47 272 47q149 0 238 -60t89 -160q0 -127 -193 -234q-59 -32 -79 -46l-47 -33q-52 -35 -79 -90h396v-167h-619z" />
    <glyph glyph-name="threequarters" unicode="&#xbe;" horiz-adv-x="1517" 
d="M25 742v177h131l2 -30q5 -55 25.5 -72t81.5 -17q69 0 103 34.5t34 102.5q0 77 -53.5 115t-161.5 38h-85v91h77q100 0 150 31.5t50 94.5q0 60 -28.5 89.5t-86.5 29.5q-61 0 -77 -15t-20 -76l-2 -30h-134v174q135 38 260 38q156 0 234 -48t78 -145q0 -54 -33 -98.5
t-100 -80.5q81 -34 121 -84.5t40 -117.5q0 -107 -94.5 -170.5t-254.5 -63.5q-146 0 -257 33zM333 -37h-199l1127 1554h199zM1199 196h-401v113l432 473h165v-436h98v-150h-98v-30q0 -51 9.5 -64.5t45.5 -13.5l37 -2v-86h-382v86l39 2q40 0 47.5 10.5t7.5 67.5v30zM968 346
h231v251z" />
    <glyph glyph-name="questiondown" unicode="&#xbf;" horiz-adv-x="1035" 
d="M751 1098v-247h-296v247h296zM751 679v-17q0 -165 -153 -297l-63 -55q-158 -137 -158 -329q0 -140 69 -224t183 -84q99 0 164 58q29 25 36 170l1 19h136v-276q-182 -64 -403 -64q-223 0 -360 91.5t-137 240.5q0 145 157 260q68 50 91 69l45 39q58 50 77 124t19 255v20
h296z" />
    <glyph glyph-name="Agrave" unicode="&#xc0;" horiz-adv-x="1629" 
d="M405 450l-75 -159q-55 -118 -55 -161q0 -33 63 -33q9 -1 38 -3l19 -1v-93h-395v93l19 1q80 5 100.5 26t89.5 171l551 1202h103l555 -1203q73 -149 93.5 -169t104.5 -27l13 -1v-93h-617v93l19 1q126 8 128 39q2 30 -57 159l-73 158h-624zM451 549h531l-270 575zM504 1900
h275l218 -296h-120z" />
    <glyph glyph-name="Aacute" unicode="&#xc1;" horiz-adv-x="1629" 
d="M405 450l-75 -159q-55 -118 -55 -161q0 -33 63 -33q9 -1 38 -3l19 -1v-93h-395v93l19 1q80 5 100.5 26t89.5 171l551 1202h103l555 -1203q73 -149 93.5 -169t104.5 -27l13 -1v-93h-617v93l19 1q126 8 128 39q2 30 -57 159l-73 158h-624zM451 549h531l-270 575zM875 1900
h274l-373 -296h-120z" />
    <glyph glyph-name="Acircumflex" unicode="&#xc2;" horiz-adv-x="1629" 
d="M405 450l-75 -159q-55 -118 -55 -161q0 -33 63 -33q9 -1 38 -3l19 -1v-93h-395v93l19 1q80 5 100.5 26t89.5 171l551 1202h103l555 -1203q73 -149 93.5 -169t104.5 -27l13 -1v-93h-617v93l19 1q126 8 128 39q2 30 -57 159l-73 158h-624zM451 549h531l-270 575zM464 1604
l224 296h253l223 -296h-117l-233 170l-233 -170h-117z" />
    <glyph glyph-name="Atilde" unicode="&#xc3;" horiz-adv-x="1629" 
d="M405 450l-75 -159q-55 -118 -55 -161q0 -33 63 -33q9 -1 38 -3l19 -1v-93h-395v93l19 1q80 5 100.5 26t89.5 171l551 1202h103l555 -1203q73 -149 93.5 -169t104.5 -27l13 -1v-93h-617v93l19 1q126 8 128 39q2 30 -57 159l-73 158h-624zM451 549h531l-270 575zM466 1604
q0 266 198 266q40 0 136 -31l74 -24q72 -23 104 -23q78 0 97 77h88q0 -265 -199 -265q-37 0 -135 31l-74 23q-74 24 -104 24q-79 0 -92 -78h-93z" />
    <glyph glyph-name="Adieresis" unicode="&#xc4;" horiz-adv-x="1629" 
d="M405 450l-75 -159q-55 -118 -55 -161q0 -33 63 -33q9 -1 38 -3l19 -1v-93h-395v93l19 1q80 5 100.5 26t89.5 171l551 1202h103l555 -1203q73 -149 93.5 -169t104.5 -27l13 -1v-93h-617v93l19 1q126 8 128 39q2 30 -57 159l-73 158h-624zM451 549h531l-270 575zM506 1604
v210h210v-210h-210zM913 1604v210h210v-210h-210z" />
    <glyph glyph-name="Aring" unicode="&#xc5;" horiz-adv-x="1629" 
d="M405 450l-75 -159q-55 -118 -55 -161q0 -34 63 -34q9 0 38 -2l19 -1v-93h-395v93l19 1q81 5 100.5 25.5t89.5 171.5l551 1199q-56 23 -84 61.5t-28 92.5q0 66 47 113t113 47t113 -47t47 -113q0 -53 -26 -91t-78 -60l554 -1203q73 -148 93.5 -168.5t104.5 -27.5l13 -1v-93
h-617v93l19 1q89 6 107.5 11.5t20.5 27.5q2 30 -57 159l-73 158h-624zM451 549h531l-270 575zM728 1644q0 -32 24 -56t56 -24t56 24t24 56t-24 56t-56 24t-56 -24t-24 -56z" />
    <glyph glyph-name="AE" unicode="&#xc6;" horiz-adv-x="1964" 
d="M1906 0h-1125v93l18 1q102 7 122 34.5t20 161.5v148h-524l-95 -153q-82 -131 -82 -156q0 -35 108 -35h19v-94h-358v93l19 1q50 3 67.5 21.5t109.5 169.5l736 1195h921v-265h-148l-1 19q-3 51 -3 60q0 56 -26.5 72t-119.5 16h-318v-562h218q102 0 128 10t29 89l1 19h136
v-321h-136l-1 18q-3 79 -29 89t-127 10h-225v-444q0 -166 39 -177q29 -8 158 -8h125q146 0 166.5 14.5t27.5 121.5l2 18h148v-259zM482 530h459v745z" />
    <glyph glyph-name="Ccedilla" unicode="&#xc7;" horiz-adv-x="1456" 
d="M1364 57q-215 -94 -501 -94l-47 -67q214 -28 214 -146q0 -72 -57.5 -108.5t-173.5 -36.5q-91 0 -175 31l2 93q64 -21 111 -21q59 0 88.5 15t29.5 44q0 80 -172 90l76 113q-329 32 -504.5 229t-175.5 533q0 377 203 581t577 204q226 0 479 -65v-305h-149v19q0 133 -43 169
q-100 84 -283 84q-218 0 -337 -175.5t-119 -497.5q0 -329 133.5 -494t399.5 -165q184 0 424 110v-140z" />
    <glyph glyph-name="Egrave" unicode="&#xc8;" horiz-adv-x="1231" 
d="M1172 0h-1129v93l19 1q101 7 121 34.5t20 161.5v901q0 134 -19.5 161t-121.5 35l-19 1v92h1086v-265h-148l-2 19q-3 51 -3 60q0 56 -26.5 72t-119.5 16h-318v-562h206q119 0 136.5 6t19.5 93l2 19h105v-321h-105l-2 18q-2 79 -28 89t-127 10h-213v-444q0 -166 39 -177
q29 -8 159 -8h124q150 0 168.5 14.5t26.5 139.5l1 19h148v-278zM341 1900h275l218 -296h-120z" />
    <glyph glyph-name="Eacute" unicode="&#xc9;" horiz-adv-x="1231" 
d="M1172 0h-1129v93l19 1q101 7 121 34.5t20 161.5v901q0 134 -19.5 161t-121.5 35l-19 1v92h1086v-265h-148l-2 19q-3 51 -3 60q0 56 -26.5 72t-119.5 16h-318v-562h206q119 0 136.5 6t19.5 93l2 19h105v-321h-105l-2 18q-2 79 -28 89t-127 10h-213v-444q0 -166 39 -177
q29 -8 159 -8h124q150 0 168.5 14.5t26.5 139.5l1 19h148v-278zM675 1900h274l-373 -296h-120z" />
    <glyph glyph-name="Ecircumflex" unicode="&#xca;" horiz-adv-x="1231" 
d="M1172 0h-1129v93l19 1q101 7 121 34.5t20 161.5v901q0 134 -19.5 161t-121.5 35l-19 1v92h1086v-265h-148l-2 19q-3 51 -3 60q0 56 -26.5 72t-119.5 16h-318v-562h206q119 0 136.5 6t19.5 93l2 19h105v-321h-105l-2 18q-2 79 -28 89t-127 10h-213v-444q0 -166 39 -177
q29 -8 159 -8h124q150 0 168.5 14.5t26.5 139.5l1 19h148v-278zM313 1604l224 296h253l223 -296h-117l-233 170l-233 -170h-117z" />
    <glyph glyph-name="Edieresis" unicode="&#xcb;" horiz-adv-x="1231" 
d="M1172 0h-1129v93l19 1q101 7 121 34.5t20 161.5v901q0 134 -19.5 161t-121.5 35l-19 1v92h1086v-265h-148l-2 19q-3 51 -3 60q0 56 -26.5 72t-119.5 16h-318v-562h206q119 0 136.5 6t19.5 93l2 19h105v-321h-105l-2 18q-2 79 -28 89t-127 10h-213v-444q0 -166 39 -177
q29 -8 159 -8h124q150 0 168.5 14.5t26.5 139.5l1 19h148v-278zM330 1604v210h210v-210h-210zM737 1604v210h210v-210h-210z" />
    <glyph glyph-name="Igrave" unicode="&#xcc;" horiz-adv-x="716" 
d="M672 0h-629v93l19 1q101 7 121 34.5t20 161.5v901q0 134 -19.5 161t-121.5 35l-19 1v92h629v-92l-18 -1q-103 -8 -122.5 -35t-19.5 -161v-901q0 -134 20 -161.5t122 -34.5l18 -1v-93zM47 1900h275l218 -296h-120z" />
    <glyph glyph-name="Iacute" unicode="&#xcd;" horiz-adv-x="716" 
d="M672 0h-629v93l19 1q101 7 121 34.5t20 161.5v901q0 134 -19.5 161t-121.5 35l-19 1v92h629v-92l-18 -1q-103 -8 -122.5 -35t-19.5 -161v-901q0 -134 20 -161.5t122 -34.5l18 -1v-93zM394 1900h274l-373 -296h-120z" />
    <glyph glyph-name="Icircumflex" unicode="&#xce;" horiz-adv-x="716" 
d="M672 0h-629v93l19 1q101 7 121 34.5t20 161.5v901q0 134 -19.5 161t-121.5 35l-19 1v92h629v-92l-18 -1q-103 -8 -122.5 -35t-19.5 -161v-901q0 -134 20 -161.5t122 -34.5l18 -1v-93zM8 1604l224 296h253l223 -296h-117l-233 170l-233 -170h-117z" />
    <glyph glyph-name="Idieresis" unicode="&#xcf;" horiz-adv-x="716" 
d="M672 0h-629v93l19 1q101 7 121 34.5t20 161.5v901q0 134 -19.5 161t-121.5 35l-19 1v92h629v-92l-18 -1q-103 -8 -122.5 -35t-19.5 -161v-901q0 -134 20 -161.5t122 -34.5l18 -1v-93zM49 1604v210h210v-210h-210zM456 1604v210h210v-210h-210z" />
    <glyph glyph-name="Eth" unicode="&#xd0;" horiz-adv-x="1625" 
d="M42 0v93l19 1q102 7 122 34.5t20 161.5v413h-210v99h210v389q0 134 -19.5 161t-122.5 35l-19 1v92h486l215 3l79 1q348 0 536 -185t188 -528q0 -352 -190.5 -561.5t-511.5 -209.5h-802zM510 1382v-580h347v-99h-347v-413q0 -122 37 -153.5t182 -31.5q245 0 367 166.5
t122 499.5q0 332 -135.5 471.5t-458.5 139.5h-114z" />
    <glyph glyph-name="Ntilde" unicode="&#xd1;" horiz-adv-x="1613" 
d="M1174 -21l-823 1121v-810q0 -134 20 -161.5t122 -34.5l18 -1v-93h-467v93l19 1q101 7 121 34.5t20 161.5v901q0 134 -19.5 161t-121.5 35l-19 1v92h372l817 -1118v829q0 134 -19.5 161t-122.5 35l-19 1v92h466v-92l-18 -1q-101 -8 -121 -35t-20 -161v-1212h-205z
M457 1604q0 266 198 266q40 0 136 -31l74 -24q72 -23 104 -23q78 0 97 77h88q0 -265 -199 -265q-37 0 -135 31l-74 23q-74 24 -104 24q-79 0 -92 -78h-93z" />
    <glyph glyph-name="Ograve" unicode="&#xd2;" horiz-adv-x="1659" 
d="M830 -37q-349 0 -550 208.5t-201 568.5q0 361 201 569t550 208q348 0 549 -208t201 -569q0 -360 -201 -568.5t-549 -208.5zM830 62q212 0 317.5 170.5t105.5 511.5q0 338 -105.5 506.5t-317.5 168.5q-211 0 -317 -168.5t-106 -506.5q0 -341 106 -511.5t317 -170.5z
M519 1900h275l218 -296h-120z" />
    <glyph glyph-name="Oacute" unicode="&#xd3;" horiz-adv-x="1659" 
d="M830 -37q-349 0 -550 208.5t-201 568.5q0 361 201 569t550 208q348 0 549 -208t201 -569q0 -360 -201 -568.5t-549 -208.5zM830 62q212 0 317.5 170.5t105.5 511.5q0 338 -105.5 506.5t-317.5 168.5q-211 0 -317 -168.5t-106 -506.5q0 -341 106 -511.5t317 -170.5z
M865 1900h274l-373 -296h-120z" />
    <glyph glyph-name="Ocircumflex" unicode="&#xd4;" horiz-adv-x="1659" 
d="M830 -37q-349 0 -550 208.5t-201 568.5q0 361 201 569t550 208q348 0 549 -208t201 -569q0 -360 -201 -568.5t-549 -208.5zM830 62q212 0 317.5 170.5t105.5 511.5q0 338 -105.5 506.5t-317.5 168.5q-211 0 -317 -168.5t-106 -506.5q0 -341 106 -511.5t317 -170.5z
M479 1604l224 296h253l223 -296h-117l-233 170l-233 -170h-117z" />
    <glyph glyph-name="Otilde" unicode="&#xd5;" horiz-adv-x="1659" 
d="M830 -37q-349 0 -550 208.5t-201 568.5q0 361 201 569t550 208q348 0 549 -208t201 -569q0 -360 -201 -568.5t-549 -208.5zM830 62q212 0 317.5 170.5t105.5 511.5q0 338 -105.5 506.5t-317.5 168.5q-211 0 -317 -168.5t-106 -506.5q0 -341 106 -511.5t317 -170.5z
M481 1604q0 266 198 266q40 0 136 -31l74 -24q72 -23 104 -23q78 0 97 77h88q0 -265 -199 -265q-37 0 -135 31l-74 23q-74 24 -104 24q-79 0 -92 -78h-93z" />
    <glyph glyph-name="Odieresis" unicode="&#xd6;" horiz-adv-x="1659" 
d="M830 -37q-349 0 -550 208.5t-201 568.5q0 361 201 569t550 208q348 0 549 -208t201 -569q0 -360 -201 -568.5t-549 -208.5zM830 62q212 0 317.5 170.5t105.5 511.5q0 338 -105.5 506.5t-317.5 168.5q-211 0 -317 -168.5t-106 -506.5q0 -341 106 -511.5t317 -170.5z
M521 1604v210h210v-210h-210zM928 1604v210h210v-210h-210z" />
    <glyph glyph-name="multiply" unicode="&#xd7;" 
d="M96 159l437 433l-437 428l103 115l440 -440l439 440l104 -107l-438 -436l438 -438l-102 -105l-441 436l-439 -436z" />
    <glyph glyph-name="Oslash" unicode="&#xd8;" horiz-adv-x="1659" 
d="M198 -37h-125l196 219q-189 227 -189 564q0 354 202 562.5t545 208.5q287 0 491 -155l136 155h131l-193 -221q194 -226 194 -557q0 -359 -202 -567.5t-549 -208.5q-285 0 -496 154zM450 385l723 814q-111 220 -341 220q-212 0 -318.5 -167t-106.5 -502q0 -203 43 -365z
M1214 1096l-726 -813q115 -221 346 -221q213 0 319 164t106 492q0 218 -45 378z" />
    <glyph glyph-name="Ugrave" unicode="&#xd9;" horiz-adv-x="1530" 
d="M19 1480h629v-92l-18 -1q-102 -8 -121.5 -35t-19.5 -161v-640q0 -267 77.5 -379t262.5 -112q197 0 286.5 118.5t89.5 380.5v632q0 134 -19.5 161t-122.5 35l-18 1v92h465v-92l-18 -1q-101 -8 -120 -35t-19 -161v-608q0 -319 -137 -469q-137 -151 -427 -151
q-610 0 -610 600v621q0 134 -20 162t-121 34l-19 2v98zM490 1900h275l218 -296h-120z" />
    <glyph glyph-name="Uacute" unicode="&#xda;" horiz-adv-x="1530" 
d="M19 1480h629v-92l-18 -1q-102 -8 -121.5 -35t-19.5 -161v-640q0 -267 77.5 -379t262.5 -112q197 0 286.5 118.5t89.5 380.5v632q0 134 -19.5 161t-122.5 35l-18 1v92h465v-92l-18 -1q-101 -8 -120 -35t-19 -161v-608q0 -319 -137 -469q-137 -151 -427 -151
q-610 0 -610 600v621q0 134 -20 162t-121 34l-19 2v98zM848 1900h274l-373 -296h-120z" />
    <glyph glyph-name="Ucircumflex" unicode="&#xdb;" horiz-adv-x="1530" 
d="M19 1480h629v-92l-18 -1q-102 -8 -121.5 -35t-19.5 -161v-640q0 -267 77.5 -379t262.5 -112q197 0 286.5 118.5t89.5 380.5v632q0 134 -19.5 161t-122.5 35l-18 1v92h465v-92l-18 -1q-101 -8 -120 -35t-19 -161v-608q0 -319 -137 -469q-137 -151 -427 -151
q-610 0 -610 600v621q0 134 -20 162t-121 34l-19 2v98zM462 1604l224 296h253l223 -296h-117l-233 170l-233 -170h-117z" />
    <glyph glyph-name="Udieresis" unicode="&#xdc;" horiz-adv-x="1530" 
d="M19 1480h629v-92l-18 -1q-102 -8 -121.5 -35t-19.5 -161v-640q0 -267 77.5 -379t262.5 -112q197 0 286.5 118.5t89.5 380.5v632q0 134 -19.5 161t-122.5 35l-18 1v92h465v-92l-18 -1q-101 -8 -120 -35t-19 -161v-608q0 -319 -137 -469q-137 -151 -427 -151
q-610 0 -610 600v621q0 134 -20 162t-121 34l-19 2v98zM504 1604v210h210v-210h-210zM911 1604v210h210v-210h-210z" />
    <glyph glyph-name="Yacute" unicode="&#xdd;" horiz-adv-x="1468" 
d="M575 640l-336 542q-63 101 -71 116q-34 64 -50.5 73.5t-101.5 15.5l-20 1v92h642v-92h-16q-116 0 -118 -33q-2 -32 85 -174l251 -412l257 412q85 137 85 169q0 38 -97 38h-22v92h407v-92l-18 -1q-89 -7 -100.5 -18t-124.5 -187l-344 -540v-352q0 -134 20 -161.5
t122 -34.5l18 -1v-93h-629v93l19 1q102 7 122 34.5t20 161.5v350zM801 1900h274l-373 -296h-120z" />
    <glyph glyph-name="Thorn" unicode="&#xde;" horiz-adv-x="1258" 
d="M499 308l3 -117q0 -62 20.5 -76.5t118.5 -20.5l19 -1v-93h-617v93l19 1q101 7 121 34.5t20 161.5v901q0 134 -19.5 161t-121.5 35l-19 1v92h617v-92l-19 -1q-91 -7 -113 -38.5t-29 -164.5h91q337 0 434 -52q187 -100 187 -335q0 -244 -155 -366.5t-465 -122.5h-92z
M499 407h59q170 0 255 92t85 275q0 156 -72.5 234t-218.5 78h-108v-679z" />
    <glyph glyph-name="germandbls" unicode="&#xdf;" horiz-adv-x="1433" 
d="M731 19v240h123l1 -18q8 -116 26 -145t83 -29q62 0 106 51.5t44 123.5q0 79 -126 187l-129 111q-190 163 -190 270q0 87 95 233l20 29q58 89 58 217q0 111 -36.5 166.5t-110.5 55.5q-83 0 -125 -79t-42 -238v-904q0 -134 15.5 -162.5t89.5 -33.5l19 -1v-93h-580v93l19 1
q101 7 121 34.5t20 161.5v824q0 256 107 373t342 117q197 0 311.5 -70.5t114.5 -192.5q0 -102 -138 -212l-38 -31q-88 -71 -88 -140q0 -55 136 -165l140 -114q155 -128 199 -194.5t44 -174.5q0 -140 -105 -237.5t-256 -97.5q-173 0 -270 44z" />
    <glyph glyph-name="agrave" unicode="&#xe0;" horiz-adv-x="1139" 
d="M711 127q-79 -76 -161.5 -114t-168.5 -38q-146 0 -242 90.5t-96 228.5q0 161 122 257q73 58 173 80.5t282 22.5h50v133q0 141 -35.5 192t-131.5 51q-117 0 -176 -63q-20 -20 -26 -134l-1 -19h-161v222q190 87 397 87q208 0 319 -86t111 -247v-482q0 -128 19 -174
q18 -47 69 -47q15 0 35 6l13 -93q-77 -25 -151 -25q-81 0 -141 38t-99 114zM670 200v364h-39q-148 0 -222.5 -59.5t-74.5 -178.5q0 -88 47.5 -140.5t127.5 -52.5q45 0 85 17t76 50zM231 1579h275l218 -296h-120z" />
    <glyph glyph-name="aacute" unicode="&#xe1;" horiz-adv-x="1139" 
d="M711 127q-79 -76 -161.5 -114t-168.5 -38q-146 0 -242 90.5t-96 228.5q0 161 122 257q73 58 173 80.5t282 22.5h50v133q0 141 -35.5 192t-131.5 51q-117 0 -176 -63q-20 -20 -26 -134l-1 -19h-161v222q190 87 397 87q208 0 319 -86t111 -247v-482q0 -128 19 -174
q18 -47 69 -47q15 0 35 6l13 -93q-77 -25 -151 -25q-81 0 -141 38t-99 114zM670 200v364h-39q-148 0 -222.5 -59.5t-74.5 -178.5q0 -88 47.5 -140.5t127.5 -52.5q45 0 85 17t76 50zM607 1579h274l-373 -296h-120z" />
    <glyph glyph-name="acircumflex" unicode="&#xe2;" horiz-adv-x="1139" 
d="M711 127q-79 -76 -161.5 -114t-168.5 -38q-146 0 -242 90.5t-96 228.5q0 161 122 257q73 58 173 80.5t282 22.5h50v133q0 141 -35.5 192t-131.5 51q-117 0 -176 -63q-20 -20 -26 -134l-1 -19h-161v222q190 87 397 87q208 0 319 -86t111 -247v-482q0 -128 19 -174
q18 -47 69 -47q15 0 35 6l13 -93q-77 -25 -151 -25q-81 0 -141 38t-99 114zM670 200v364h-39q-148 0 -222.5 -59.5t-74.5 -178.5q0 -88 47.5 -140.5t127.5 -52.5q45 0 85 17t76 50zM221 1283l224 296h253l223 -296h-117l-233 170l-233 -170h-117z" />
    <glyph glyph-name="atilde" unicode="&#xe3;" horiz-adv-x="1139" 
d="M711 127q-79 -76 -161.5 -114t-168.5 -38q-146 0 -242 90.5t-96 228.5q0 161 122 257q73 58 173 80.5t282 22.5h50v133q0 141 -35.5 192t-131.5 51q-117 0 -176 -63q-20 -20 -26 -134l-1 -19h-161v222q190 87 397 87q208 0 319 -86t111 -247v-482q0 -128 19 -174
q18 -47 69 -47q15 0 35 6l13 -93q-77 -25 -151 -25q-81 0 -141 38t-99 114zM670 200v364h-39q-148 0 -222.5 -59.5t-74.5 -178.5q0 -88 47.5 -140.5t127.5 -52.5q45 0 85 17t76 50zM223 1283q0 266 198 266q40 0 136 -31l74 -24q72 -23 104 -23q78 0 97 77h88
q0 -265 -199 -265q-37 0 -135 31l-74 23q-74 24 -104 24q-79 0 -92 -78h-93z" />
    <glyph glyph-name="adieresis" unicode="&#xe4;" horiz-adv-x="1139" 
d="M711 127q-79 -76 -161.5 -114t-168.5 -38q-146 0 -242 90.5t-96 228.5q0 161 122 257q73 58 173 80.5t282 22.5h50v133q0 141 -35.5 192t-131.5 51q-117 0 -176 -63q-20 -20 -26 -134l-1 -19h-161v222q190 87 397 87q208 0 319 -86t111 -247v-482q0 -128 19 -174
q18 -47 69 -47q15 0 35 6l13 -93q-77 -25 -151 -25q-81 0 -141 38t-99 114zM670 200v364h-39q-148 0 -222.5 -59.5t-74.5 -178.5q0 -88 47.5 -140.5t127.5 -52.5q45 0 85 17t76 50zM263 1283v210h210v-210h-210zM670 1283v210h210v-210h-210z" />
    <glyph glyph-name="aring" unicode="&#xe5;" horiz-adv-x="1139" 
d="M711 127q-79 -76 -161.5 -114t-168.5 -38q-146 0 -242 90.5t-96 228.5q0 161 122 257q73 58 173 80.5t282 22.5h50v133q0 141 -35.5 192t-131.5 51q-117 0 -176 -63q-20 -20 -26 -134l-1 -19h-161v222q190 87 397 87q208 0 319 -86t111 -247v-482q0 -128 19 -174
q18 -47 69 -47q15 0 35 6l13 -93q-77 -25 -151 -25q-81 0 -141 38t-99 114zM670 200v364h-39q-148 0 -222.5 -59.5t-74.5 -178.5q0 -88 47.5 -140.5t127.5 -52.5q45 0 85 17t76 50zM571 1283q-66 0 -113 47t-47 113q0 67 47 114t113 47q67 0 114 -47t47 -114q0 -66 -47 -113
t-114 -47zM571 1363q32 0 56 24t24 56q0 33 -23.5 57t-56.5 24q-32 0 -56 -24t-24 -57q0 -32 24 -56t56 -24z" />
    <glyph glyph-name="ae" unicode="&#xe6;" horiz-adv-x="1745" 
d="M765 185q-81 -105 -173.5 -157.5t-196.5 -52.5q-151 0 -251.5 92.5t-100.5 230.5q0 183 142 269.5t442 86.5h53v133q0 141 -35.5 192t-131.5 51q-108 0 -174 -65q-22 -22 -28 -132l-1 -19h-161v222q190 87 397 87q103 0 186.5 -32t147.5 -96q130 128 323 128
q443 0 443 -562v-22h-686q0 -416 389 -416q131 0 297 72v-152q-208 -68 -385 -68q-183 0 -286 44t-210 166zM680 193v362h-38q-150 0 -225.5 -57.5t-75.5 -173.5q0 -100 42 -150.5t126 -50.5q46 0 89 17.5t82 52.5zM967 632h388v35q0 199 -40 281t-138 82q-210 0 -210 -398z
" />
    <glyph glyph-name="ccedilla" unicode="&#xe7;" horiz-adv-x="1107" 
d="M1006 26q-162 -54 -314 -54l-58 -83q175 -39 175 -144q0 -60 -56 -100t-140 -40q-83 0 -159 24v92q48 -12 86 -12q50 0 74.5 17t24.5 50q0 63 -142 80l87 122q-261 34 -391.5 179t-130.5 400q0 266 155 416t431 150q173 0 354 -50v-283h-142l-1 18q-8 125 -30 152
q-56 70 -173 70q-140 0 -210 -114t-70 -342q0 -233 93.5 -350t279.5 -117q115 0 257 56v-137z" />
    <glyph glyph-name="egrave" unicode="&#xe8;" horiz-adv-x="1151" 
d="M1052 43q-196 -68 -382 -68q-281 0 -444.5 158t-163.5 429q0 250 147.5 405.5t384.5 155.5q458 0 458 -562v-22h-686q0 -208 97 -312t291 -104q132 0 298 72v-152zM373 632h387v35q0 199 -40 281t-138 82q-104 0 -156.5 -99.5t-52.5 -298.5zM271 1579h275l218 -296h-120z
" />
    <glyph glyph-name="eacute" unicode="&#xe9;" horiz-adv-x="1151" 
d="M1052 43q-196 -68 -382 -68q-281 0 -444.5 158t-163.5 429q0 250 147.5 405.5t384.5 155.5q458 0 458 -562v-22h-686q0 -208 97 -312t291 -104q132 0 298 72v-152zM373 632h387v35q0 199 -40 281t-138 82q-104 0 -156.5 -99.5t-52.5 -298.5zM617 1579h274l-373 -296h-120
z" />
    <glyph glyph-name="ecircumflex" unicode="&#xea;" horiz-adv-x="1151" 
d="M1052 43q-196 -68 -382 -68q-281 0 -444.5 158t-163.5 429q0 250 147.5 405.5t384.5 155.5q458 0 458 -562v-22h-686q0 -208 97 -312t291 -104q132 0 298 72v-152zM373 632h387v35q0 199 -40 281t-138 82q-104 0 -156.5 -99.5t-52.5 -298.5zM231 1283l224 296h253
l223 -296h-117l-233 170l-233 -170h-117z" />
    <glyph glyph-name="edieresis" unicode="&#xeb;" horiz-adv-x="1151" 
d="M1052 43q-196 -68 -382 -68q-281 0 -444.5 158t-163.5 429q0 250 147.5 405.5t384.5 155.5q458 0 458 -562v-22h-686q0 -208 97 -312t291 -104q132 0 298 72v-152zM373 632h387v35q0 199 -40 281t-138 82q-104 0 -156.5 -99.5t-52.5 -298.5zM273 1283v210h210v-210h-210z
M680 1283v210h210v-210h-210z" />
    <glyph glyph-name="igrave" unicode="&#xec;" horiz-adv-x="666" 
d="M487 1098v-808q0 -134 20.5 -161.5t121.5 -34.5l19 -1v-93h-617v93l19 1q101 7 121 34.5t20 161.5v518q0 134 -20 161.5t-121 34.5l-19 1v93h456zM23 1579h275l218 -296h-120z" />
    <glyph glyph-name="iacute" unicode="&#xed;" horiz-adv-x="666" 
d="M487 1098v-808q0 -134 20.5 -161.5t121.5 -34.5l19 -1v-93h-617v93l19 1q101 7 121 34.5t20 161.5v518q0 134 -20 161.5t-121 34.5l-19 1v93h456zM369 1579h274l-373 -296h-120z" />
    <glyph glyph-name="icircumflex" unicode="&#xee;" horiz-adv-x="666" 
d="M487 1098v-808q0 -134 20.5 -161.5t121.5 -34.5l19 -1v-93h-617v93l19 1q101 7 121 34.5t20 161.5v518q0 134 -20 161.5t-121 34.5l-19 1v93h456zM-29 1283l224 296h253l223 -296h-117l-233 170l-233 -170h-117z" />
    <glyph glyph-name="idieresis" unicode="&#xef;" horiz-adv-x="666" 
d="M487 1098v-808q0 -134 20.5 -161.5t121.5 -34.5l19 -1v-93h-617v93l19 1q101 7 121 34.5t20 161.5v518q0 134 -20 161.5t-121 34.5l-19 1v93h456zM25 1283v210h210v-210h-210zM432 1283v210h210v-210h-210z" />
    <glyph glyph-name="eth" unicode="&#xf0;" horiz-adv-x="1335" 
d="M260 1085l-60 68l268 220q-163 93 -365 114v92q273 0 501 -96l242 195l61 -69l-207 -167q539 -318 539 -849q0 -275 -159.5 -446.5t-415.5 -171.5q-249 0 -404.5 153t-155.5 399q0 240 146 393t376 153q76 0 163 -29q-86 156 -239 277zM681 68q128 0 191.5 120t63.5 359
q0 202 -68.5 318t-188.5 116q-130 0 -195.5 -111.5t-65.5 -335.5q0 -233 66 -349.5t197 -116.5z" />
    <glyph glyph-name="ntilde" unicode="&#xf1;" horiz-adv-x="1339" 
d="M487 891q68 116 162 174t214 58q148 0 232 -91q83 -92 83 -255v-487q0 -134 20.5 -161.5t121.5 -34.5l19 -1v-93h-617v93l18 1q102 7 122 34.5t20 161.5v453q0 117 -27.5 158.5t-105.5 41.5q-67 0 -132.5 -40.5t-129.5 -122.5v-490q0 -134 20.5 -161.5t121.5 -34.5l19 -1
v-93h-617v93l19 1q101 7 121 34.5t20 161.5v518q0 134 -20 161.5t-121 34.5l-19 1v93h456v-207zM321 1283q0 266 198 266q40 0 136 -31l74 -24q72 -23 104 -23q78 0 97 77h88q0 -265 -199 -265q-37 0 -135 31l-74 23q-74 24 -104 24q-79 0 -92 -78h-93z" />
    <glyph glyph-name="ograve" unicode="&#xf2;" horiz-adv-x="1265" 
d="M633 -25q-266 0 -418.5 153.5t-152.5 420.5t152.5 420.5t418.5 153.5q265 0 417.5 -153.5t152.5 -420.5t-152.5 -420.5t-417.5 -153.5zM633 80q122 0 182.5 117.5t60.5 351.5q0 235 -60.5 352t-182.5 117t-183 -117t-61 -352q0 -234 61 -351.5t183 -117.5zM322 1579h275
l218 -296h-120z" />
    <glyph glyph-name="oacute" unicode="&#xf3;" horiz-adv-x="1265" 
d="M633 -25q-266 0 -418.5 153.5t-152.5 420.5t152.5 420.5t418.5 153.5q265 0 417.5 -153.5t152.5 -420.5t-152.5 -420.5t-417.5 -153.5zM633 80q122 0 182.5 117.5t60.5 351.5q0 235 -60.5 352t-182.5 117t-183 -117t-61 -352q0 -234 61 -351.5t183 -117.5zM668 1579h274
l-373 -296h-120z" />
    <glyph glyph-name="ocircumflex" unicode="&#xf4;" horiz-adv-x="1265" 
d="M633 -25q-266 0 -418.5 153.5t-152.5 420.5t152.5 420.5t418.5 153.5q265 0 417.5 -153.5t152.5 -420.5t-152.5 -420.5t-417.5 -153.5zM633 80q122 0 182.5 117.5t60.5 351.5q0 235 -60.5 352t-182.5 117t-183 -117t-61 -352q0 -234 61 -351.5t183 -117.5zM282 1283
l224 296h253l223 -296h-117l-233 170l-233 -170h-117z" />
    <glyph glyph-name="otilde" unicode="&#xf5;" horiz-adv-x="1265" 
d="M633 -25q-266 0 -418.5 153.5t-152.5 420.5t152.5 420.5t418.5 153.5q265 0 417.5 -153.5t152.5 -420.5t-152.5 -420.5t-417.5 -153.5zM633 80q122 0 182.5 117.5t60.5 351.5q0 235 -60.5 352t-182.5 117t-183 -117t-61 -352q0 -234 61 -351.5t183 -117.5zM284 1283
q0 266 198 266q40 0 136 -31l74 -24q72 -23 104 -23q78 0 97 77h88q0 -265 -199 -265q-37 0 -135 31l-74 23q-74 24 -104 24q-79 0 -92 -78h-93z" />
    <glyph glyph-name="odieresis" unicode="&#xf6;" horiz-adv-x="1265" 
d="M633 -25q-266 0 -418.5 153.5t-152.5 420.5t152.5 420.5t418.5 153.5q265 0 417.5 -153.5t152.5 -420.5t-152.5 -420.5t-417.5 -153.5zM633 80q122 0 182.5 117.5t60.5 351.5q0 235 -60.5 352t-182.5 117t-183 -117t-61 -352q0 -234 61 -351.5t183 -117.5zM324 1283v210
h210v-210h-210zM731 1283v210h210v-210h-210z" />
    <glyph glyph-name="divide" unicode="&#xf7;" 
d="M528 74v222h222v-222h-222zM96 518v148h1086v-148h-1086zM528 888v222h222v-222h-222z" />
    <glyph glyph-name="oslash" unicode="&#xf8;" horiz-adv-x="1265" 
d="M130 -25h-128l185 187q-130 154 -130 393q0 262 155 415t419 153q232 0 389 -123l120 123h129l-184 -187q131 -157 131 -392q0 -259 -156 -414t-417 -155q-225 0 -391 123zM390 364l468 472q-66 194 -226 194q-130 0 -195.5 -117.5t-65.5 -352.5q0 -92 19 -196zM881 730
l-468 -470q69 -204 224 -204q122 0 193.5 124t71.5 336q0 113 -21 214z" />
    <glyph glyph-name="ugrave" unicode="&#xf9;" horiz-adv-x="1339" 
d="M851 0v207q-67 -116 -161 -174t-215 -58q-147 0 -231 92t-84 254v487q0 134 -20 161.5t-121 34.5l-19 1v93h456v-743q0 -115 30 -158.5t107 -43.5q71 0 135.5 41t122.5 122v492q0 134 -20 161.5t-122 34.5l-18 1v93h456v-808q0 -134 20.5 -161.5t121.5 -34.5l19 -1v-93
h-457zM329 1579h275l218 -296h-120z" />
    <glyph glyph-name="uacute" unicode="&#xfa;" horiz-adv-x="1339" 
d="M851 0v207q-67 -116 -161 -174t-215 -58q-147 0 -231 92t-84 254v487q0 134 -20 161.5t-121 34.5l-19 1v93h456v-743q0 -115 30 -158.5t107 -43.5q71 0 135.5 41t122.5 122v492q0 134 -20 161.5t-122 34.5l-18 1v93h456v-808q0 -134 20.5 -161.5t121.5 -34.5l19 -1v-93
h-457zM705 1579h274l-373 -296h-120z" />
    <glyph glyph-name="ucircumflex" unicode="&#xfb;" horiz-adv-x="1339" 
d="M851 0v207q-67 -116 -161 -174t-215 -58q-147 0 -231 92t-84 254v487q0 134 -20 161.5t-121 34.5l-19 1v93h456v-743q0 -115 30 -158.5t107 -43.5q71 0 135.5 41t122.5 122v492q0 134 -20 161.5t-122 34.5l-18 1v93h456v-808q0 -134 20.5 -161.5t121.5 -34.5l19 -1v-93
h-457zM319 1283l224 296h253l223 -296h-117l-233 170l-233 -170h-117z" />
    <glyph glyph-name="udieresis" unicode="&#xfc;" horiz-adv-x="1339" 
d="M851 0v207q-67 -116 -161 -174t-215 -58q-147 0 -231 92t-84 254v487q0 134 -20 161.5t-121 34.5l-19 1v93h456v-743q0 -115 30 -158.5t107 -43.5q71 0 135.5 41t122.5 122v492q0 134 -20 161.5t-122 34.5l-18 1v93h456v-808q0 -134 20.5 -161.5t121.5 -34.5l19 -1v-93
h-457zM361 1283v210h210v-210h-210zM768 1283v210h210v-210h-210z" />
    <glyph glyph-name="yacute" unicode="&#xfd;" horiz-adv-x="1339" 
d="M207 -395l375 407l-369 799q-69 141 -93 164.5t-101 28.5l-19 1v93h623v-93h-18q-121 0 -121 -36q0 -21 63 -160l205 -453l240 454q72 135 72 165t-102 30h-18v93h395v-93l-19 -1q-86 -6 -108.5 -26.5t-100.5 -167.5l-642 -1205h-262zM766 1579h274l-373 -296h-120z" />
    <glyph glyph-name="thorn" unicode="&#xfe;" horiz-adv-x="1335" 
d="M481 111v-216q0 -133 20.5 -161t121.5 -35l19 -1v-93h-617v93l19 1q101 7 121 34.5t20 161.5v1197q0 134 -20 161.5t-121 34.5l-19 1v93h456v-491q63 116 156 174t216 58q190 0 302.5 -148t112.5 -399q0 -274 -127 -437.5t-339 -163.5q-91 0 -171 34t-150 102zM481 222
q60 -53 115.5 -79.5t106.5 -26.5q125 0 187.5 107.5t62.5 321.5q0 194 -55 290.5t-166 96.5q-65 0 -128 -36t-123 -108v-566z" />
    <glyph glyph-name="ydieresis" unicode="&#xff;" horiz-adv-x="1339" 
d="M207 -395l375 407l-369 799q-69 141 -93 164.5t-101 28.5l-19 1v93h623v-93h-18q-121 0 -121 -36q0 -21 63 -160l205 -453l240 454q72 135 72 165t-102 30h-18v93h395v-93l-19 -1q-86 -6 -108.5 -26.5t-100.5 -167.5l-642 -1205h-262zM423 1283v210h210v-210h-210z
M830 1283v210h210v-210h-210z" />
    <glyph glyph-name="dotlessi" unicode="&#x131;" horiz-adv-x="666" 
d="M487 1098v-808q0 -134 20.5 -161.5t121.5 -34.5l19 -1v-93h-617v93l19 1q101 7 121 34.5t20 161.5v518q0 134 -20 161.5t-121 34.5l-19 1v93h456z" />
    <glyph glyph-name="OE" unicode="&#x152;" horiz-adv-x="2137" 
d="M1110 44q-155 -81 -304 -81q-329 0 -528 213t-199 564q0 352 199 564.5t528 212.5q150 0 304 -80v43h925v-265h-148l-1 19q-4 51 -4 60q0 56 -26.5 72t-118.5 16h-319v-562h219q119 0 136.5 6t19.5 93l2 19h135v-321h-135l-2 18q-2 79 -28 89t-127 10h-225l-1 -444
q0 -166 39 -177q30 -8 159 -8h125q146 0 166.5 14.5t27.5 121.5l1 18h148v-259h-968v44zM1110 576v322q0 314 -65 403q-85 118 -247 118q-178 0 -284.5 -183t-106.5 -489q0 -319 106 -502t292 -183q154 0 241 118q64 85 64 396z" />
    <glyph glyph-name="oe" unicode="&#x153;" horiz-adv-x="1919" 
d="M997 143q-150 -168 -377 -168q-255 0 -406.5 155.5t-151.5 418.5q0 262 151.5 418t406.5 156q124 0 220 -45.5t165 -136.5q153 182 379 182q212 0 324 -144.5t112 -417.5v-22h-686q0 -416 389 -416q131 0 297 72v-152q-208 -68 -377 -68q-284 0 -446 168zM631 68
q114 0 162.5 114t48.5 381q0 253 -49 360t-167 107q-126 0 -189 -119t-63 -358q0 -242 64.5 -363.5t192.5 -121.5zM1142 632h387v35q0 199 -40 281t-138 82q-209 0 -209 -398z" />
    <glyph glyph-name="Scaron" unicode="&#x160;" horiz-adv-x="1138" 
d="M100 18v309h148l1 -24q7 -131 51 -167q91 -74 216 -74q118 0 191.5 73t73.5 191q0 93 -43 150q-43 56 -166 124l-99 54q-371 205 -371 446q0 189 134 303.5t356 114.5q174 0 398 -66v-298h-149l-1 18q-8 140 -41 174q-74 73 -186 73q-95 0 -161 -68.5t-66 -168.5
q0 -76 43.5 -128.5t165.5 -122.5l100 -58q219 -126 300 -224q80 -99 80 -241q0 -203 -151.5 -324t-407.5 -121q-181 0 -416 55zM956 1900l-223 -296h-253l-224 296h117l233 -169l233 169h117z" />
    <glyph glyph-name="scaron" unicode="&#x161;" horiz-adv-x="1074" 
d="M111 50v283h136l1 -18q6 -124 38 -159q80 -88 237 -88q76 0 128.5 49t52.5 121q0 111 -187 185l-91 36q-315 125 -315 337q0 150 121.5 238.5t328.5 88.5q164 0 342 -52v-263h-136l-1 19l-2 48q0 155 -181 155q-79 0 -134 -51t-55 -125q0 -62 40.5 -97.5t166.5 -83.5
l90 -35q307 -118 307 -316q0 -151 -130 -249t-330 -98q-248 0 -427 75zM898 1579l-223 -296h-253l-224 296h117l233 -169l233 169h117z" />
    <glyph glyph-name="Ydieresis" unicode="&#x178;" horiz-adv-x="1468" 
d="M575 640l-336 542q-63 101 -71 116q-34 64 -50.5 73.5t-101.5 15.5l-20 1v92h642v-92h-16q-116 0 -118 -33q-2 -32 85 -174l251 -412l257 412q85 137 85 169q0 38 -97 38h-22v92h407v-92l-18 -1q-89 -7 -100.5 -18t-124.5 -187l-344 -540v-352q0 -134 20 -161.5
t122 -34.5l18 -1v-93h-629v93l19 1q102 7 122 34.5t20 161.5v350zM483 1604v210h210v-210h-210zM890 1604v210h210v-210h-210z" />
    <glyph glyph-name="florin" unicode="&#x192;" 
d="M194 -296l213 1030h-158v93h176l22 115q52 269 208.5 422t381.5 153q108 0 215 -36v-272h-160l-2 19q-7 122 -25.5 155.5t-77.5 33.5q-88 0 -128.5 -71.5t-89.5 -314.5l-41 -204h224v-93h-242l-207 -1030h-309z" />
    <glyph glyph-name="circumflex" unicode="&#x2c6;" horiz-adv-x="1265" 
d="M282 1283l224 296h253l223 -296h-117l-233 170l-233 -170h-117z" />
    <glyph glyph-name="caron" unicode="&#x2c7;" horiz-adv-x="1265" 
d="M982 1579l-223 -296h-253l-224 296h117l233 -169l233 169h117z" />
    <glyph glyph-name="macron" unicode="&#x2c9;" horiz-adv-x="1265" 
d="M324 1283v148h617v-148h-617z" />
    <glyph glyph-name="breve" unicode="&#x2d8;" horiz-adv-x="1265" 
d="M281 1579h93q64 -111 257 -111q96 0 161.5 28t99.5 83h92q-22 -135 -117.5 -215.5t-233.5 -80.5q-139 0 -234.5 80.5t-117.5 215.5z" />
    <glyph glyph-name="dotaccent" unicode="&#x2d9;" horiz-adv-x="1265" 
d="M509 1283v247h247v-247h-247z" />
    <glyph glyph-name="ring" unicode="&#x2da;" horiz-adv-x="1264" 
d="M632 1283q-66 0 -113 47t-47 113q0 67 47 114t113 47q67 0 114 -47t47 -114q0 -66 -47 -113t-114 -47zM632 1363q32 0 56 24t24 56q0 33 -23.5 57t-56.5 24q-32 0 -56 -24t-24 -57q0 -32 24 -56t56 -24z" />
    <glyph glyph-name="ogonek" unicode="&#x2db;" horiz-adv-x="1265" 
d="M839 -269q-89 -27 -163 -27q-85 0 -143 36.5t-58 90.5q0 92 144 169h131q-99 -75 -99 -135q0 -31 21.5 -47t63.5 -16q48 0 103 26v-97z" />
    <glyph glyph-name="tilde" unicode="&#x2dc;" horiz-adv-x="1265" 
d="M284 1283q0 266 198 266q40 0 136 -31l74 -24q72 -23 104 -23q78 0 97 77h88q0 -265 -199 -265q-37 0 -135 31l-74 23q-74 24 -104 24q-79 0 -92 -78h-93z" />
    <glyph glyph-name="hungarumlaut" unicode="&#x2dd;" horiz-adv-x="1265" 
d="M334 1283l222 296h185l-314 -296h-93zM704 1283l222 296h198l-321 -296h-99z" />
    <glyph glyph-name="pi" unicode="&#x3c0;" horiz-adv-x="1511" 
d="M278 0v901h-25q-122 0 -234 -67v226q93 38 277 38h1179v-197h-222v-440q0 -176 23.5 -262.5t102.5 -198.5h-330q-92 166 -92 479v422h-383v-901h-296z" />
    <glyph glyph-name="endash" unicode="&#x2013;" horiz-adv-x="1024" 
d="M62 537v160h901v-160h-901z" />
    <glyph glyph-name="emdash" unicode="&#x2014;" horiz-adv-x="2048" 
d="M86 537v123h1875v-123h-1875z" />
    <glyph glyph-name="quoteleft" unicode="&#x2018;" horiz-adv-x="543" 
d="M432 1579v-93q-124 -14 -124 -170v-33h124v-321h-321v248q0 341 321 369z" />
    <glyph glyph-name="quoteright" unicode="&#x2019;" horiz-adv-x="543" 
d="M111 962v93q124 14 124 171v32h-124v321h321v-248q0 -341 -321 -369z" />
    <glyph glyph-name="quotesinglbase" unicode="&#x201a;" horiz-adv-x="543" 
d="M111 -296v93q124 14 124 170v33h-124v321h321v-248q0 -341 -321 -369z" />
    <glyph glyph-name="quotedblleft" unicode="&#x201c;" horiz-adv-x="962" 
d="M851 1579v-92q-114 -17 -114 -167v-37h114v-296h-296v218q0 335 296 374zM407 1579v-92q-114 -17 -114 -167v-37h114v-296h-296v218q0 335 296 374z" />
    <glyph glyph-name="quotedblright" unicode="&#x201d;" horiz-adv-x="962" 
d="M555 987v93q114 16 114 166v37h-114v296h296v-218q0 -334 -296 -374zM111 987v93q114 16 114 166v37h-114v296h296v-218q0 -334 -296 -374z" />
    <glyph glyph-name="quotedblbase" unicode="&#x201e;" horiz-adv-x="962" 
d="M555 -296v92q114 17 114 167v37h-114v296h296v-218q0 -334 -296 -374zM111 -296v92q114 17 114 167v37h-114v296h296v-218q0 -334 -296 -374z" />
    <glyph glyph-name="dagger" unicode="&#x2020;" 
d="M490 -296l25 1129l-358 -56v222l358 -74l-25 555h296l-24 -555l357 74v-222l-357 56l24 -1129h-296z" />
    <glyph glyph-name="daggerdbl" unicode="&#x2021;" 
d="M490 -296l25 543l-358 -62v222l358 -68v494l-358 -56v222l358 -74l-25 555h296l-24 -555l357 74v-222l-357 56v-494l357 68v-222l-357 62l24 -543h-296z" />
    <glyph glyph-name="bullet" unicode="&#x2022;" 
d="M638 395q-81 0 -139 57.5t-58 139.5t58 140t139 58q82 0 140 -58t58 -140t-58 -139.5t-140 -57.5z" />
    <glyph glyph-name="ellipsis" unicode="&#x2026;" horiz-adv-x="2048" 
d="M234 0v222h222v-222h-222zM913 0v222h222v-222h-222zM1591 0v222h222v-222h-222z" />
    <glyph glyph-name="perthousand" unicode="&#x2030;" horiz-adv-x="2332" 
d="M45 -37l1269 1554h196l-1279 -1554h-186zM389 737q-177 0 -265.5 93t-88.5 278q0 186 88.5 279t265.5 93t265.5 -93t88.5 -279q0 -185 -88.5 -278t-265.5 -93zM389 832q65 0 97.5 69t32.5 207q0 139 -32.5 208t-97.5 69t-98 -69t-33 -208q0 -138 33 -207t98 -69zM1167 0
q-177 0 -265.5 93t-88.5 278q0 186 88.5 278.5t265.5 92.5t265.5 -92.5t88.5 -278.5q0 -185 -88.5 -278t-265.5 -93zM1167 95q66 0 98.5 69t32.5 206q0 139 -32.5 208.5t-98.5 69.5q-65 0 -98 -69.5t-33 -208.5q0 -137 33 -206t98 -69zM1945 0q-177 0 -265.5 93t-88.5 278
q0 186 88.5 278.5t265.5 92.5t265 -92.5t88 -278.5q0 -185 -88 -278t-265 -93zM1945 95q65 0 97.5 69t32.5 206q0 139 -32.5 208.5t-97.5 69.5t-98 -69.5t-33 -208.5q0 -137 33 -206t98 -69z" />
    <glyph glyph-name="guilsinglleft" unicode="&#x2039;" horiz-adv-x="691" 
d="M583 925l-220 -376l219 -376l-76 -62l-444 438l445 438z" />
    <glyph glyph-name="guilsinglright" unicode="&#x203a;" horiz-adv-x="691" 
d="M108 173l221 376l-220 376l76 62l444 -438l-445 -438z" />
    <glyph glyph-name="Euro" unicode="&#x20ac;" horiz-adv-x="1276" 
d="M90 887v8q40 304 213 463.5t463 159.5q178 0 391 -66v-305h-147q-7 134 -19.5 168.5t-70.5 69t-140 34.5q-168 0 -267 -138.5t-99 -387.5v-6h499l-20 -94h-485v-105h464l-18 -94h-438v-10q24 -242 133.5 -369t292.5 -127q167 0 342 145v-139q-177 -131 -412 -131
q-66 0 -135 11.5t-128.5 32.5t-111.5 52t-95 70.5t-78 88t-61.5 106t-44.5 124.5l-30 146h-106l20 94h78v45q0 44 2 60h-100l20 94h88z" />
    <glyph glyph-name="trademark" unicode="&#x2122;" horiz-adv-x="2137" 
d="M352 1382h-203v-136h-105v234h839v-234h-105v136h-204v-555h118v-99h-457v99h117v555zM1422 790l-163 390v-452h-271v99h111v555h-111v98h370l165 -410l156 410h357v-98h-117v-555h117v-99h-345v489l-177 -427h-92z" />
    <glyph glyph-name="uni2126" unicode="&#x2126;" horiz-adv-x="1795" 
d="M755 173v-173h-674v339h148l1 -18q8 -125 26.5 -139.5t168.5 -14.5h148q-205 157 -307.5 328t-102.5 356q0 292 206.5 479t528.5 187t528.5 -187t206.5 -479q0 -185 -102.5 -356t-308.5 -328h149q150 0 168.5 14.5t25.5 139.5l1 18h148v-339h-673v173
q136 132 203.5 293.5t67.5 353.5q0 270 -113.5 434.5t-300.5 164.5q-188 0 -301.5 -164.5t-113.5 -435.5q0 -191 68 -352.5t204 -293.5z" />
    <glyph glyph-name="partialdiff" unicode="&#x2202;" 
d="M188 1275q94 180 193.5 254.5t245.5 74.5q219 0 349 -180.5t130 -487.5q0 -422 -221 -731q-164 -230 -421 -230q-145 0 -229 94t-84 256q0 261 179 492.5t380 231.5q70 0 139 -36.5t136 -109.5q0 239 -113.5 365t-329.5 126q-164 0 -354 -119zM973 778q-44 58 -92.5 87
t-101.5 29q-111 0 -213 -180t-102 -375q0 -65 26.5 -98t78.5 -33q121 0 234 159t170 411z" />
    <glyph glyph-name="uni2206" unicode="&#x2206;" horiz-adv-x="1629" 
d="M74 0v234l695 1259h107l672 -1259v-234h-1474zM201 234h1020l-504 935z" />
    <glyph glyph-name="product" unicode="&#x220f;" horiz-adv-x="1635" 
d="M512 1376v-1086q0 -134 20 -161.5t122 -34.5l18 -1v-93h-629v93l19 1q101 7 121 34.5t20 161.5v901q0 134 -19.5 161t-121.5 35l-19 1v92h1549v-92l-18 -1q-103 -8 -122.5 -35t-19.5 -161v-901q0 -134 20 -161.5t122 -34.5l18 -1v-93h-629v93l19 1q101 7 121 34.5
t20 161.5v1086h-611z" />
    <glyph glyph-name="summation" unicode="&#x2211;" horiz-adv-x="1437" 
d="M33 0v197l638 554l-576 625v104h1226v-265h-148l-1 19q-4 51 -4 60q0 56 -26.5 72t-118.5 16h-540l481 -528l-759 -657h824q150 0 168.5 15t26.5 140l1 18h148v-370h-1340z" />
    <glyph glyph-name="fraction" unicode="&#x2215;" horiz-adv-x="113" 
d="M-401 -37h-199l1127 1554h199z" />
    <glyph glyph-name="periodcentered" unicode="&#x2219;" 
d="M515 469v247h247v-247h-247z" />
    <glyph glyph-name="radical" unicode="&#x221a;" horiz-adv-x="1456" 
d="M118 352l-50 83l301 177l412 -768l621 1785h103l-668 -1925h-149l-403 740z" />
    <glyph glyph-name="infinity" unicode="&#x221e;" horiz-adv-x="1653" 
d="M801 455q-148 -307 -376 -307q-148 0 -255.5 124.5t-107.5 296.5q0 195 113.5 331t276.5 136q215 0 402 -317q156 317 369 317q156 0 262.5 -125t106.5 -308q0 -189 -111 -322t-269 -133q-120 0 -199.5 59.5t-211.5 247.5zM741 547q-172 290 -326 290q-83 0 -140.5 -81.5
t-57.5 -198.5q0 -112 64.5 -188.5t157.5 -76.5q74 0 159 71.5t143 183.5zM922 635q170 -287 308 -287q84 0 145 82t61 194q0 114 -61.5 188t-157.5 74q-169 0 -295 -251z" />
    <glyph glyph-name="integral" unicode="&#x222b;" 
d="M869 1442q-8 1 -13 1q-81 0 -81 -204l2 -92l7 -487v-102q0 -854 -384 -854q-83 0 -137 46t-54 117q0 129 117 129q111 0 111 -116q0 -24 -6.5 -47.5t-20.5 -45.5q6 -1 11 -1q81 0 81 201l-14 569v102q0 429 77 607q109 253 312 253q82 0 136.5 -44.5t54.5 -110.5
q0 -131 -118 -131q-112 0 -112 118q0 24 8 47t23 45z" />
    <glyph glyph-name="approxequal" unicode="&#x2248;" 
d="M96 654q0 145 77 236.5t199 91.5q80 0 215 -70l107 -57q171 -90 219 -90q121 0 121 185h148q-21 -333 -266 -333q-89 0 -245 80l-112 58q-153 79 -190 79q-125 0 -125 -180h-148zM96 234q0 146 77 237.5t199 91.5q80 0 215 -71l107 -56q171 -91 219 -91q121 0 121 185
h148q-21 -333 -266 -333q-89 0 -245 81l-112 57q-154 80 -190 80q-125 0 -125 -181h-148z" />
    <glyph glyph-name="notequal" unicode="&#x2260;" 
d="M96 345v148h409l112 198h-521v148h605l114 197h168l-112 -197h311v-148h-395l-112 -198h507v-148h-590l-109 -197h-174l112 197h-325z" />
    <glyph glyph-name="lessequal" unicode="&#x2264;" 
d="M1182 0h-1086v148h1086v-148zM1182 1283v-165l-755 -378l755 -377v-166l-1086 543z" />
    <glyph glyph-name="greaterequal" unicode="&#x2265;" 
d="M1182 0h-1086v148h1086v-148zM96 197v166l754 377l-754 378v165l1086 -543z" />
    <glyph glyph-name="lozenge" unicode="&#x25ca;" 
d="M639 0l-543 543l543 543l543 -543zM639 209l333 334l-333 333l-334 -333z" />
    <glyph glyph-name="uniF001" unicode="&#xf001;" horiz-adv-x="1376" 
d="M49 0v93l19 1q101 7 121 34.5t20 161.5v709h-154v99h154l1 53q0 227 97 340t290 113q123 0 225 -47v-249h-123l-1 18q-7 125 -18.5 152.5t-56.5 27.5q-59 0 -88.5 -56t-29.5 -169v-183h691v-808q0 -134 20.5 -161.5t121.5 -34.5l19 -1v-93h-592v93l18 1q30 2 85 17
q32 10 32 179v709h-395v-708q0 -169 33 -178q55 -16 85 -18l18 -1v-94h-592zM925 1283v296h271v-296h-271z" />
    <glyph glyph-name="uniF002" unicode="&#xf002;" horiz-adv-x="1376" 
d="M49 0v93l19 1q101 7 121 34.5t20 161.5v709h-154v99h154v71q0 218 99.5 326.5t297.5 108.5q67 0 202 -25h388v-1289q0 -134 20.5 -161.5t121.5 -34.5l19 -1v-93h-592v93l18 1q84 5 100.5 33t16.5 163v1098q-125 92 -240 92q-77 0 -116 -60t-39 -181v-141h241v-99h-241
v-709q0 -133 17.5 -162t100.5 -34l18 -1v-93h-592z" />
    <glyph glyph-name="f000" horiz-adv-x="1024" 
d="M128 0v1480h768v-1480h-768zM256 128h512v1224h-512v-1224z" />
  </font>
</defs>
</svg>
